<?xml version="1.0" standalone="no"?>
<!DOCTYPE svg PUBLIC "-//W3C//DTD SVG 1.1//EN" "http://www.w3.org/Graphics/SVG/1.1/DTD/svg11.dtd" >
<svg xmlns="http://www.w3.org/2000/svg">
<metadata></metadata>
<defs>
<font id="exomedium" horiz-adv-x="1380" >
<font-face units-per-em="2048" ascent="1638" descent="-410" />
<missing-glyph horiz-adv-x="512" />
<glyph unicode="&#xfb01;" horiz-adv-x="1255" d="M38 918v135l193 34v102q0 185 113.5 302.5t301.5 118.5q75 0 206.5 -21.5t204.5 -45.5v-119l-358 19q-52 3 -98 -7.5t-89 -37t-68 -81t-25 -131.5v-99l732 -20v-1067h-190v918h-542v-918h-188v918h-193z" />
<glyph unicode="&#xfb02;" horiz-adv-x="1470" d="M38 918v135l195 34v105q0 193 87.5 305.5t264.5 112.5l567 -1v-1210q0 -86 11.5 -131.5t33 -64.5t66.5 -33q156 -43 170 -43v-127h-196q-147 0 -210 86.5t-63 300.5v1056h-338q-51 0 -86 -10.5t-63.5 -37t-42 -77t-13.5 -126.5v-105h284v-169h-287v-918h-189v918h-191z " />
<glyph horiz-adv-x="0" />
<glyph unicode="&#xd;" horiz-adv-x="1912" />
<glyph unicode=" "  horiz-adv-x="512" />
<glyph unicode="&#x09;" horiz-adv-x="512" />
<glyph unicode="&#xa0;" horiz-adv-x="512" />
<glyph unicode="!" horiz-adv-x="552" d="M159 47v135q0 51 49 51h132q23 0 35 -14t12 -37v-135q0 -47 -47 -47h-132q-22 0 -35.5 12.5t-13.5 34.5zM167 1497h212l-19 -1096h-175z" />
<glyph unicode="&#x22;" horiz-adv-x="813" d="M163 1362v137h187v-137l-21 -275h-143zM465 1362v137h187v-137l-21 -275h-144z" />
<glyph unicode="#" horiz-adv-x="1425" d="M38 463l20 131h322l50 313h-322l22 131h322l76 461h131l-76 -461h316l74 461h131l-74 -461h360l-22 -131h-359l-51 -315h360l-19 -131h-364l-75 -461h-132l76 461l-316 2l-76 -463h-131l76 463h-319zM511 594l316 -2l51 315h-317z" />
<glyph unicode="$" horiz-adv-x="1173" d="M105 1007v134q1 105 30.5 178.5t84.5 114t121.5 58t154.5 19.5v177h134v-182q162 -12 385 -46v-148q-47 1 -163.5 5.5t-214.5 9t-105 4.5q-58 2 -96.5 -4t-73 -25t-51.5 -60.5t-17 -106.5v-119q0 -185 199 -185h246q83 0 144.5 -22.5t96.5 -57t56 -85.5t27.5 -97.5 t6.5 -102.5v-128q0 -106 -37.5 -180.5t-103 -112t-139 -51.5t-160.5 -10v-168h-134v176q-187 16 -344 46v142q16 0 195.5 -7t291.5 -7q242 0 242 169v123q0 89 -35.5 137t-124.5 48h-245q-90 0 -158.5 24t-108 60t-64 86.5t-32.5 96.5t-8 97z" />
<glyph unicode="%" horiz-adv-x="1957" d="M80 974v266q0 136 59 197.5t209 61.5h207q146 0 204.5 -62t58.5 -197v-266q0 -136 -58.5 -197.5t-208.5 -61.5h-207q-146 0 -205 62t-59 197zM232 983q0 -69 25 -93t94 -24h192q79 0 101 24.5t22 92.5v248q0 70 -25.5 93.5t-93.5 23.5h-192q-78 0 -100.5 -23.5 t-22.5 -93.5v-248zM454 0l902 1499h162l-900 -1499h-164zM1142 263v267q0 136 58.5 197.5t208.5 61.5h207q146 0 205 -62t59 -197v-267q0 -136 -59 -197.5t-209 -61.5h-207q-146 0 -204.5 62t-58.5 197zM1294 273q0 -69 25 -93t94 -24h191q79 0 101.5 24.5t22.5 92.5v247 q0 70 -25.5 93.5t-94.5 23.5h-191q-78 0 -100.5 -23.5t-22.5 -93.5v-247z" />
<glyph unicode="&#x26;" horiz-adv-x="1327" d="M68.5 476.5q24.5 157.5 162.5 274.5l167 143l-123 168q-78 112 -66 206t74.5 156t140.5 71q86 9 164 9.5t148.5 -7.5t122 -17.5t116.5 -25.5v-131h-394q-89 0 -132 -22t-38 -75.5t69 -139.5l445 -602l237 241l62 -69l-109 -220l-83 -91l251 -345h-223l-162 219l-143 -132 q-79 -73 -192 -92t-226 26t-184 147q-109 151 -84.5 308.5zM311 272q39 -49 95 -77t121 -23t114 52l147 139l-289 384l-145 -122q-194 -161 -43 -353z" />
<glyph unicode="'" horiz-adv-x="399" d="M105 1362v137h191v-137l-21 -275h-147z" />
<glyph unicode="(" horiz-adv-x="708" d="M143 668q0 165 34.5 338t83.5 302.5t98.5 235.5t84.5 162l34 55h194q-14 -22 -37 -61t-81.5 -160.5t-103.5 -244.5t-81.5 -296t-36.5 -331q0 -173 35 -350t85 -305.5t100 -232.5t85 -157l35 -53h-194q-7 9 -19 25.5t-47 74t-66.5 121t-70 163t-66.5 203t-47 239 t-19 272.5z" />
<glyph unicode=")" horiz-adv-x="708" d="M38 -430q7 10 19.5 28.5t47.5 80.5t67 128.5t71.5 168t67.5 204t47.5 232.5t19.5 256q0 158 -35 328.5t-85 301t-100 239t-85 166.5l-35 58h194q14 -21 36.5 -58t80 -156t102 -240.5t80.5 -297.5t36 -341q0 -137 -18.5 -271.5t-48 -240.5t-65 -202t-71.5 -164t-65.5 -119 t-48.5 -76l-18 -25h-194z" />
<glyph unicode="*" horiz-adv-x="892" d="M96 1159v91l284 57l11 -158zM229 849l49 278l154 -37l-118 -268zM355 1470l88 35l149 -245l-145 -64zM416 970l87 132l227 -186l-50 -73zM508 1169l245 158l46 -79l-190 -199z" />
<glyph unicode="+" horiz-adv-x="1038" d="M93 641v176h336v338h176v-338h340v-176h-340v-338h-176v338h-336z" />
<glyph unicode="," horiz-adv-x="546" d="M163 51v129q0 56 51 56h123q49 0 49 -56v-203q0 -57 -22 -94t-53 -49.5t-62.5 -16.5t-53.5 -1l-22 4v75q28 -1 43 10.5t17.5 22.5t2.5 27v45h-22q-23 0 -37 13t-14 38z" />
<glyph unicode="-" horiz-adv-x="724" d="M41 506v176h643v-176h-643z" />
<glyph unicode="." horiz-adv-x="550" d="M163 47v135q0 51 49 51h127q51 0 51 -51v-135q0 -47 -51 -47h-127q-22 0 -35.5 12.5t-13.5 34.5z" />
<glyph unicode="/" horiz-adv-x="849" d="M38 -147l576 1724h198l-575 -1724h-199z" />
<glyph unicode="0" horiz-adv-x="1308" d="M134 341v814q0 165 100 254.5t259 89.5h336q93 0 162 -27t108.5 -75.5t58 -108t18.5 -130.5v-817q0 -176 -91.5 -258.5t-256.5 -82.5h-335q-77 0 -140 19t-113 58.5t-78 107t-28 156.5zM322 354q0 -92 54.5 -132t133.5 -40h299q179 0 179 171v793q0 171 -177 171h-303 q-96 0 -141 -48.5t-45 -122.5v-792z" />
<glyph unicode="1" horiz-adv-x="745" d="M76 1196v130l330 173h188v-1499h-189v1296z" />
<glyph unicode="2" horiz-adv-x="1216" d="M76 1335v141q319 44 623 44q87 0 159 -24.5t120 -66.5t81 -99t48 -119.5t15 -130.5q0 -79 -31 -165.5t-79 -162t-115.5 -155t-129.5 -139.5t-133 -120.5t-114 -93.5t-84 -62h686v-182h-1031v170q66 45 138 97.5t174.5 133t190 164.5t167 173.5t125.5 180t46 164.5 q0 116 -63 184t-196 68h-597z" />
<glyph unicode="3" horiz-adv-x="1210" d="M57 1321v125q84 29 196.5 43.5t222 14.5t236.5 -1q166 -3 261 -98t95 -246v-132q0 -111 -37 -183t-104 -99q141 -79 141 -298v-111q0 -172 -92.5 -261t-278.5 -89h-75h-79t-70 0.5t-75.5 2.5t-66.5 4.5t-72 7t-62.5 10t-67.5 14t-59 18.5l2 127h586q51 0 84.5 5.5 t67 22.5t50 54t16.5 95v105q0 193 -206 200l-473 15v149l473 21q210 9 210 187v123q0 90 -60.5 132t-149.5 42h-613z" />
<glyph unicode="4" horiz-adv-x="1243" d="M38 459l624 1040h217l-560 -941h524v402l73 154h115v-556h176v-148l-176 -42v-364h-188v364h-735z" />
<glyph unicode="5" horiz-adv-x="1230" d="M146 41v143h610q50 0 85.5 15.5t54.5 42.5t27 56.5t8 63.5v202q0 27 -1.5 45.5t-11 46t-26.5 44.5t-51 30t-82 13h-281q-65 0 -111 -35.5t-46 -108.5h-172l45 900h877v-182h-700l-22 -453q43 47 148 59q45 6 101 6t112.5 -3t71.5 -3q173 -2 255 -96t82 -254v-227 q0 -81 -23 -144.5t-59 -102t-84 -63.5t-92.5 -34.5t-89.5 -9.5q-208 0 -320 8t-305 41z" />
<glyph unicode="6" horiz-adv-x="1267" d="M125 786q0 157 20.5 282.5t54 206t79.5 134.5t95 77t103 24q309 7 627 -40v-141h-570q-53 0 -94 -35t-63.5 -86.5t-37.5 -121.5t-20 -126.5t-6 -116.5q297 43 505 43q102 0 171 -25t103.5 -72t48 -99t13.5 -122v-256q0 -314 -339 -314h-302q-73 1 -128 20.5t-106 72 t-83.5 139.5t-51.5 227t-19 329zM313 707q0 -51 1 -91.5t6 -98t14 -101t26 -90t39.5 -77t57.5 -50t79 -19.5h265q84 0 125 30.5t41 124.5v224q0 83 -44 115.5t-121 32.5h-489z" />
<glyph unicode="7" horiz-adv-x="1122" d="M57 1317v182h947l62 -107l-532 -1392h-216l509 1317h-770z" />
<glyph unicode="8" horiz-adv-x="1292" d="M143 323v187q0 99 47 149.5t124 72.5q-48 18 -83 50t-53.5 72.5t-26.5 81.5t-8 86v133q0 101 27 171.5t78 109.5t115 56t147 17h302q171 0 254.5 -84t83.5 -270v-127q1 -24 -3.5 -54t-18 -70t-47.5 -71.5t-85 -41.5q41 -7 72.5 -38.5t48.5 -73t25.5 -83t7.5 -77.5v-194 q0 -79 -22.5 -139.5t-56 -94.5t-81 -55.5t-90.5 -28.5t-90 -7h-300q-74 0 -133 13.5t-96.5 34t-65 51.5t-41 58t-21 62.5t-9 56.5t-1.5 47zM332 327q0 -74 45.5 -111t146.5 -37h268q71 0 120.5 38t49.5 110v195q0 76 -46.5 116t-117.5 40h-293q-77 0 -125 -37t-48 -119v-195 zM332 1012q0 -46 16.5 -79t44 -49.5t55.5 -24t57 -7.5h292q165 0 165 160v127q0 104 -41 147.5t-127 43.5h-270q-51 0 -82 -6t-58.5 -25t-39.5 -58t-12 -102v-127z" />
<glyph unicode="9" horiz-adv-x="1267" d="M115 940v256q0 314 339 314h302q73 -1 128.5 -20.5t106 -72.5t83 -140t51.5 -227t19 -329q0 -157 -20.5 -282.5t-54 -206t-79.5 -134t-95 -76.5t-103 -24q-392 -9 -628 39v142h570q66 0 112 50t68 132t31.5 154.5t10.5 149.5q-297 -43 -505 -43q-102 0 -171 25t-103.5 72 t-48 99t-13.5 122zM302 949q0 -83 43.5 -115.5t120.5 -32.5h490q0 51 -1 91.5t-6 98t-14 101t-26 90t-39.5 77t-57.5 50t-79 19.5h-265q-84 0 -125 -31t-41 -125v-223z" />
<glyph unicode=":" horiz-adv-x="550" d="M163 47v135q0 51 49 51h127q51 0 51 -51v-135q0 -47 -51 -47h-127q-22 0 -35.5 12.5t-13.5 34.5zM163 903v135q0 51 49 51h127q51 0 51 -51v-135q0 -47 -51 -47h-127q-22 0 -35.5 12.5t-13.5 34.5z" />
<glyph unicode=";" horiz-adv-x="555" d="M163 51v129q0 23 14 39.5t37 16.5h123q23 0 36 -16t13 -40v-203q0 -57 -22 -94t-53 -49.5t-62.5 -16.5t-53.5 -1l-22 4v75q28 -1 43 10.5t17.5 22.5t2.5 27v45h-22q-21 0 -36 15.5t-15 35.5zM166 905v135q0 51 49 51h127q52 0 52 -51v-135q0 -48 -52 -48h-127 q-22 0 -35.5 13t-13.5 35z" />
<glyph unicode="&#x3c;" horiz-adv-x="958" d="M96 628v192l768 322v-192l-538 -225l538 -246v-195z" />
<glyph unicode="=" horiz-adv-x="956" d="M41 419v176h874v-176h-874zM41 850v176h874v-176h-874z" />
<glyph unicode="&#x3e;" horiz-adv-x="958" d="M96 284v195l537 246l-537 225v192l768 -322v-192z" />
<glyph unicode="?" horiz-adv-x="1107" d="M38 1329v140q251 37 353 43q106 6 225 1q112 0 195.5 -31.5t130 -86.5t68.5 -121.5t22 -145.5v-191q0 -134 -63 -217.5t-171 -111t-254 -8.5v-201h-175v351h275q85 3 143.5 49.5t58.5 138.5v181q0 111 -62.5 160.5t-202.5 49.5h-543zM344 47v135q0 51 49 51h130 q23 0 35.5 -14t12.5 -37v-135q0 -47 -48 -47h-130q-22 0 -35.5 12.5t-13.5 34.5z" />
<glyph unicode="@" horiz-adv-x="1740" d="M125 6v688q0 27 2 52t10.5 62.5t23 68t42 64t65 56t94.5 37.5t128 15h428q50 0 93 -7.5t87 -28t75 -52.5t50.5 -85.5t19.5 -122.5v-753h-134l-31 128l-20 -15q-19 -15 -52.5 -36.5t-75.5 -43t-97 -36.5t-107 -15q-116 -2 -190 70t-72 178v103q0 128 71.5 201.5 t201.5 73.5h337q2 137 0 137q0 77 -38 104t-122 27h-424q-33 0 -58 -3.5t-51.5 -14.5t-43.5 -30.5t-28 -54t-11 -82.5v-679q0 -214 192 -214h706q120 0 165.5 51.5t45.5 162.5v1018q0 115 -57 175t-154 60h-828v118q282 57 599 55h229q174 -2 279 -104.5t105 -303.5v-1018 q0 -389 -381 -389h-709q-167 0 -266 97.5t-99 285.5zM640 249q0 -34 35 -64.5t82 -29.5q127 -2 317 104v227l-320 -29q-56 -6 -86 -40t-28 -86v-82z" />
<glyph unicode="A" horiz-adv-x="1384" d="M86 0l539 1499h199l515 -1499h-214l-123 394h-569l-127 -394h-220zM494 574h451l-222 654z" />
<glyph unicode="B" horiz-adv-x="1224" d="M153 0v1499h589q108 0 188.5 -35t124.5 -94t64.5 -124.5t20.5 -138.5q0 -123 -45.5 -212t-147.5 -117q84 -18 145 -108.5t61 -245.5q0 -90 -20.5 -163t-65.5 -133.5t-127.5 -94t-196.5 -33.5h-590zM343 179h397q33 0 60.5 4.5t59 20.5t53.5 42t36.5 73.5t14.5 110.5 q0 114 -56 190t-168 76h-397v-517zM343 872h394q106 0 161 57.5t55 170.5q0 65 -19.5 110.5t-53 68t-68 32t-75.5 9.5h-394v-448z" />
<glyph unicode="C" horiz-adv-x="1179" d="M105 754q0 151 13 264t46.5 210.5t90 158.5t144.5 95t209 34q102 0 249 -16t257 -40v-149l-18 1q-17 1 -46.5 3t-67.5 4.5t-84 5t-91.5 4.5t-93.5 3t-87 1q-64 0 -109.5 -9.5t-84.5 -34t-63.5 -65.5t-42 -106.5t-25 -155t-7.5 -212.5q0 -88 6.5 -160t21 -139t40 -117 t61.5 -87.5t87 -57t116 -19.5q96 0 218 4t196 8l74 3v-149q-101 -22 -249 -36q-138 -13 -242 -12h-15q-111 0 -197.5 37t-143.5 103t-94 163t-52.5 210.5t-15.5 252.5z" />
<glyph unicode="D" horiz-adv-x="1347" d="M153 0v1499h579q94 0 171.5 -25.5t131.5 -67.5t95 -103t65.5 -125.5t39.5 -143t20.5 -147t5.5 -144.5q0 -114 -17.5 -218.5t-57.5 -201.5t-100 -168t-151 -113t-203 -42h-579zM342 184h384q90 0 158 43.5t108.5 121t60.5 177t20 219.5q0 158 -23.5 270t-69.5 178.5 t-108 96.5t-146 30h-384v-1136z" />
<glyph unicode="E" horiz-adv-x="1161" d="M152 264v957q0 78 23 135t63.5 87.5t87.5 44.5q41 12 88 11h14q615 -28 651 -33v-151h-633q-38 0 -61 -9t-32 -28.5t-11 -34t-2 -42.5v-362l654 -21v-152l-654 -20v-362q1 -31 9.5 -52.5t18 -32t31 -15.5t32 -5.5t36.5 -0.5h612v-149l-630 -35q-17 -1 -34 -1 q-263 0 -263 271z" />
<glyph unicode="F" horiz-adv-x="1161" d="M152 0v1219q0 77 22.5 134t62 88.5t87.5 45.5q42 12 90 12h14q615 -28 651 -33v-151h-633q-38 0 -61 -9t-32 -28.5t-11 -34t-2 -42.5v-362l654 -21v-152l-654 -20v-646h-188z" />
<glyph unicode="G" horiz-adv-x="1257" d="M105 758q0 95 5 173.5t19 158.5t37 142t60 116.5t87 90.5t119 56.5t155 20.5q105 0 260 -17t276 -42v-148q-2 0 -37 3t-90 6.5t-119 7.5t-138 7t-133 3q-77 0 -131.5 -23t-90 -65.5t-55.5 -116t-27.5 -162t-7.5 -215.5q0 -134 9.5 -228.5t31 -164t59 -110t89 -59.5 t125.5 -20h6q65 0 150 22q89 24 144 48l56 24v371h-307v124q157 51 357 51q66 0 139 -6v-806h-140l-45 100q-168 -108 -375 -110h-9q-83 0 -152 18q-71 20 -121.5 55t-87.5 91t-59.5 117.5t-36 144.5t-18 162.5t-4.5 179.5z" />
<glyph unicode="H" horiz-adv-x="1304" d="M153 0v1499h189v-683h661v683h188v-1499h-188v634h-661v-634h-189z" />
<glyph unicode="I" horiz-adv-x="454" d="M153 0v1499h189v-1499h-189z" />
<glyph unicode="J" horiz-adv-x="733" d="M67 44l7 142q128 -25 179 -25h4q132 2 164 121q10 39 10 90v1127h188v-1161q0 -47 -2.5 -80.5t-12 -79.5t-33 -82t-59.5 -59q-78 -49 -209 -49h-15q-141 3 -221 56z" />
<glyph unicode="K" horiz-adv-x="1230" d="M153 0v1499h185v-659h155l447 659h225l-501 -748l501 -751h-225l-447 660h-153v-660h-187z" />
<glyph unicode="L" horiz-adv-x="1130" d="M153 267v1232h189v-1210q0 -31 8.5 -52.5t18 -32t30.5 -16t32.5 -6t36.5 -0.5h596v-182h-623q-48 0 -85.5 5.5t-77 22.5t-65.5 45t-43 77.5t-17 116.5z" />
<glyph unicode="M" horiz-adv-x="1665" d="M105 0l108 1499h260l359 -1186l349 1186h259l122 -1499h-188l-94 1164l-346 -1164h-200l-357 1164l-84 -1164h-188z" />
<glyph unicode="N" horiz-adv-x="1390" d="M153 0v1499h193l743 -1149v1149h188v-1499h-188l-745 1146v-1146h-191z" />
<glyph unicode="O" d="M125 739q0 116 9 211.5t25 169t42 131t55 98.5t70 70t80.5 46.5t93 27.5t101.5 13t111 3q65 0 113.5 -3t102.5 -13t93 -27.5t79.5 -46.5t68.5 -70t53.5 -98.5t41 -131t24 -169t8.5 -211.5q0 -140 -13.5 -249.5t-37 -188t-63.5 -134.5t-84.5 -89.5t-109 -53t-127.5 -26 t-149 -6.5q-60 0 -106 2.5t-96.5 9.5t-87.5 20.5t-75.5 34t-66.5 51t-54.5 71.5t-44 95.5t-31 122.5t-19.5 153t-6 187zM313 739q0 -126 8 -214t28.5 -152t48 -102t76 -60t102.5 -29.5t136 -7.5q79 0 133.5 8.5t101.5 31.5t75.5 62t49 103t28.5 151t8 209t-9 213t-22 154 t-42 105t-54.5 65t-75 34.5t-87.5 14t-106 2.5t-105 -2.5t-86.5 -13.5t-75.5 -34t-55.5 -65t-43.5 -105t-23.5 -154.5t-9.5 -213.5z" />
<glyph unicode="P" horiz-adv-x="1200" d="M118 0v1499h624q374 0 374 -442q0 -91 -13 -163t-33.5 -120t-52 -82.5t-62 -53t-71.5 -28.5q-40 -12 -71 -14q-22 -2 -49 -1h-22q-59 1 -243.5 18.5t-192.5 22.5v-636h-188zM306 774h430q34 0 59.5 5.5t51 23t42 47.5t27 82t10.5 124q-1 70 -14.5 120.5t-32.5 77 t-46.5 42t-48.5 19t-48 3.5h-430v-544z" />
<glyph unicode="Q" d="M125 739q0 116 9 211.5t24 169t40.5 131t54 98.5t69 70t80 46.5t93 27.5t102 13t112.5 3q65 0 114 -3t102.5 -13t93 -27.5t80.5 -46.5t69 -70t54 -98.5t41 -131t24 -169t9 -211.5q0 -123 -9.5 -222t-30.5 -174t-48 -131t-67.5 -94.5t-83 -63t-101.5 -38.5t-115.5 -19 t-131.5 -5q-67 0 -117.5 3t-105 12.5t-93.5 26.5t-79 45t-67.5 68t-52 95.5t-38.5 127t-22.5 164t-8.5 205.5zM313 739q0 -94 4 -166t15 -130.5t25.5 -99.5t39.5 -71.5t52.5 -49t69 -29.5t85.5 -15t105 -4q79 0 133.5 8.5t102 31.5t76.5 62t49.5 103t29 151t8.5 209t-9 213 t-22.5 154t-43 105t-55 65t-75 34.5t-87.5 14t-107 2.5q-68 0 -104.5 -2.5t-86 -13.5t-75 -34t-55 -65t-43 -105t-23 -154.5t-9.5 -213.5zM640 -68h122q53 -45 112 -62q44 -13 84 -13q14 0 28 2q52 6 117 28v-182q-49 -16 -107 -18h-15q-51 0 -103 12q-60 14 -110 42.5 t-85 78t-43 112.5z" />
<glyph unicode="R" horiz-adv-x="1220" d="M118 0v1499h644q363 0 363 -455q0 -79 -11.5 -144t-27.5 -107.5t-42 -76t-46 -50.5t-50 -30.5t-43 -17t-35 -7.5l307 -611h-207l-297 600l-367 29v-629h-188zM307 788h447q22 0 35.5 1t32.5 4t31 10.5t26.5 19.5t23 31t16.5 45t11.5 62.5t3.5 82.5q0 87 -14.5 144.5 t-42.5 84t-56 36t-67 9.5h-447v-530z" />
<glyph unicode="S" horiz-adv-x="1198" d="M125 1007v134q0 87 20.5 152.5t55.5 106t88 66t110.5 35.5t130.5 10h10q94 1 264 -17q179 -18 256 -34v-151q-85 6 -282.5 13t-225.5 7q-24 1 -44 1t-35 -1q-31 -2 -64 -12.5t-52 -31t-31.5 -58t-12.5 -92.5v-119q0 -61 12.5 -99.5t41 -56.5t59.5 -23.5t83 -5.5h276 q329 0 329 -365v-128q0 -88 -24.5 -153.5t-62.5 -103t-94.5 -60t-111 -30t-121.5 -7.5q-104 0 -274 17.5t-256 36.5v150q226 -22 515 -22q33 0 58.5 2t62.5 11.5t60.5 26t41.5 50t18 79.5v123q0 89 -35 137t-124 48h-272q-97 0 -167.5 23.5t-108.5 57.5t-60.5 86.5t-28 96 t-5.5 100.5z" />
<glyph unicode="T" horiz-adv-x="1191" d="M84 1317v182h1059v-182h-441v-1317h-188v1317h-430z" />
<glyph unicode="U" horiz-adv-x="1378" d="M153 655v844h189v-844q0 -88 5.5 -157t20.5 -119t29.5 -86t44 -58.5t52 -35.5t65 -18.5t72 -7t83.5 -1.5q39 0 65.5 1.5t60.5 6.5t57 14.5t49.5 27t44 42.5t35 61t27.5 83t16 109t6 138v844h190v-844q0 -138 -19 -245t-45.5 -176.5t-75.5 -118t-88.5 -72.5t-106.5 -36.5 t-106 -14.5t-110 -2q-164 0 -229 12q-161 29 -239 160q-93 157 -93 493z" />
<glyph unicode="V" d="M86 1499h204l409 -1220l431 1220h203l-535 -1499h-201z" />
<glyph unicode="W" horiz-adv-x="1986" d="M86 1499h204l408 -1201l343 1201h209l-130 -454l263 -758l353 1212h204l-454 -1499h-200l-260 724l-228 -724h-201z" />
<glyph unicode="X" horiz-adv-x="1245" d="M86 1499h207l346 -597l352 597h207l-444 -742l434 -757h-207l-342 596l-340 -596h-207l431 757z" />
<glyph unicode="Y" horiz-adv-x="1304" d="M86 1499h206l361 -768l399 768h205l-511 -985v-514h-188v514z" />
<glyph unicode="Z" horiz-adv-x="1148" d="M67 0v182l777 1135h-777v182h1016v-182l-768 -1135h768v-182h-1016z" />
<glyph unicode="[" horiz-adv-x="663" d="M163 -62v1425q0 49 6.5 93.5t26 95.5t50.5 87.5t86 60.5t128 24h167v-176h-149q-59 0 -93 -51t-34 -143v-1413q0 -92 34 -143.5t93 -51.5h149v-176h-167q-75 0 -131.5 26t-87 64t-49 91t-24 96t-5.5 91z" />
<glyph unicode="\" horiz-adv-x="849" d="M38 1577h199l575 -1724h-198z" />
<glyph unicode="]" horiz-adv-x="663" d="M38 -254h149q59 0 93 51.5t34 143.5v1413q0 92 -34 143t-93 51h-149v176h167q73 0 128 -24t86 -60.5t50.5 -87.5t26 -95.5t6.5 -93.5v-1425q0 -48 -5.5 -91t-24 -96t-49 -91t-87 -64t-131.5 -26h-167v176z" />
<glyph unicode="^" horiz-adv-x="796" d="M96 1087l234 270h164l209 -270h-158l-137 140l-153 -140h-159zM494 1357z" />
<glyph unicode="_" d="M41 -2v176h1298v-176h-1298z" />
<glyph unicode="`" horiz-adv-x="495" d="M38 1363h210l210 -276h-154z" />
<glyph unicode="a" horiz-adv-x="1062" d="M76 263v119q0 126 74.5 203t210.5 77q209 -1 313.5 -1t104.5 1q1 58 1 87.5t-1 30.5q0 87 -41.5 123t-120.5 36q-167 0 -505 -24v128q199 62 520 65h7q147 0 237 -78q92 -80 92 -247v-783h-144l-45 128q-3 -3 -28.5 -17t-71 -35t-96.5 -41t-112.5 -33.5t-112.5 -13.5 q-125 2 -203.5 77t-78.5 198zM265 282q0 -67 30.5 -94t84.5 -27q68 0 167.5 24.5t165.5 49.5l66 25v267l-402 -29q-112 -11 -112 -127v-89z" />
<glyph unicode="b" horiz-adv-x="1134" d="M115 0v1608h185v-583q86 36 197 57.5t186 21.5q89 0 155 -31.5t104 -81.5t61 -126.5t30.5 -152.5t7.5 -173q0 -87 -9 -162t-34 -149t-64 -125t-103 -83t-148 -32q-92 0 -210 45t-171 85l-44 -118h-143zM302 252q192 -87 361 -87q189 0 189 377q0 154 -23.5 242t-62.5 118 t-103 30q-185 0 -361 -50v-630z" />
<glyph unicode="c" horiz-adv-x="1019" d="M96 545q0 115 11.5 203.5t35 148t53.5 100t72.5 62.5t86 30.5t99.5 8.5q86 0 226.5 -16t249.5 -41v-129q-260 13 -442 13q-31 0 -51 -2t-44 -10.5t-38.5 -24t-29.5 -44t-23 -69.5t-13 -100.5t-5 -137.5q0 -151 21.5 -232.5t63.5 -111.5t119 -30q84 0 198 5.5t186 10.5 l73 5v-132q-77 -26 -166.5 -40t-154 -17.5t-170.5 -4.5q-66 0 -116 12.5t-97.5 48t-77.5 96t-48.5 161t-18.5 237.5z" />
<glyph unicode="d" horiz-adv-x="1134" d="M96 539q0 69 3.5 125.5t13.5 116t26.5 106t44 88.5t64.5 69.5t89 43.5t116 16q75 0 185.5 -21.5t196.5 -57.5v583h187v-1608h-144l-43 118q-53 -40 -171.5 -85t-210.5 -45q-357 0 -357 551zM284 542q0 -377 189 -377q170 0 362 87v630q-176 50 -362 50q-64 0 -103 -30 t-62.5 -118t-23.5 -242z" />
<glyph unicode="e" horiz-adv-x="1075" d="M96 549q0 120 11 207t37.5 148t61.5 98.5t92.5 58.5t119.5 28t153 7q57 0 97 -2t84.5 -8t74 -18t60 -31t49 -48t34 -68.5t22.5 -92.5t7 -120q0 -256 -287 -256h-428q0 -120 21 -182t64.5 -84.5t127.5 -22.5h73.5h77t64.5 0.5t72 2t61 3.5t70 5.5t63 8.5v-136 q-186 -57 -524 -57q-140 0 -216.5 53.5t-109 172t-32.5 333.5zM284 616h408q118 0 118 96q0 51 -3 83.5t-14 58t-25 38.5t-43 21.5t-61.5 10.5t-86.5 2q-38 0 -59.5 -0.5t-51.5 -2.5t-45.5 -6.5t-37 -12t-32.5 -19t-24.5 -28.5t-19.5 -39.5t-12.5 -52t-8.5 -66.5t-2 -83z " />
<glyph unicode="f" horiz-adv-x="821" d="M38 918v135l191 34v203q0 47 4.5 84.5t20.5 84t44 77.5t79.5 52.5t122.5 21.5q134 0 283 -49v-120l-236 2q-37 1 -62 -8t-38.5 -21t-20 -38t-7.5 -45.5t-1 -58.5v-185h287v-169h-287v-918h-189v918h-191z" />
<glyph unicode="g" horiz-adv-x="1136" d="M89 -73l86 124q-41 28 -62.5 75.5t-21.5 101.5q0 60 31.5 112t91.5 65q-62 39 -90.5 122.5t-28.5 177.5q0 192 94 289.5t266 97.5h645v-130l-154 -37q1 -3 13.5 -25.5t17 -34.5t13 -38t11.5 -58.5t3 -73.5q0 -46 -7.5 -92t-30.5 -101.5t-59 -97.5t-101 -70.5t-149 -28.5 h-301q-84 0 -84 -58q0 -65 84 -65h408q132 0 206 -78t74 -216v-126q0 -44 -7 -84t-28 -83.5t-54.5 -75t-92 -52t-135.5 -20.5h-307q-151 0 -241 80t-90 235v165zM278 22v-250q0 -49 14.5 -81.5t41 -46.5t51 -19t56.5 -5h270q81 0 113 39t32 111v108q0 70 -27 100t-104 30 h-356q-25 0 -48 3.5t-33 6.5zM283 705q0 -42 7.5 -78.5t25.5 -72t53.5 -56t86.5 -20.5h177q53 0 91 21t57 56.5t27 72.5q7 33 7 68v9q-4 110 -42.5 162t-141.5 52h-164q-184 0 -184 -214z" />
<glyph unicode="h" horiz-adv-x="1116" d="M115 0v1605h188v-641q123 75 171 96q105 46 215 46q161 0 247 -103t86 -254v-749h-188v750q0 92 -45 137.5t-122 45.5q-104 0 -174 -23.5t-190 -87.5v-822h-188z" />
<glyph unicode="i" horiz-adv-x="419" d="M96 1260v130q0 51 49 51h133q23 0 35 -14t12 -37v-130q0 -47 -47 -47h-133q-22 0 -35.5 12.5t-13.5 34.5zM113 0v1087h189v-1087h-189z" />
<glyph unicode="j" horiz-adv-x="458" d="M115 1260v130q0 51 49 51h133q23 0 35 -14t12 -37v-130q0 -47 -47 -47h-133q-22 0 -35.5 12.5t-13.5 34.5zM135 -553v1640h188v-1095v-43q0 -332 -59 -502h-129z" />
<glyph unicode="k" horiz-adv-x="1054" d="M115 0v1602h188v-895h76l387 380h252l-463 -465l463 -622h-230l-409 537h-76v-537h-188z" />
<glyph unicode="l" horiz-adv-x="620" d="M115 387v1217h188v-1205q0 -83 15 -132t37 -68t59 -29q156 -43 170 -43v-127h-196q-63 0 -111.5 20t-85.5 64.5t-56.5 120.5t-19.5 182z" />
<glyph unicode="m" horiz-adv-x="1824" d="M115 0v1087h140l48 -127q10 6 42 26t43.5 26.5t40.5 22.5t45 22.5t43.5 17t50 15t51 8t58.5 3.5q102 0 182 -41.5t114 -113.5q194 155 425 155q151 0 242 -99.5t91 -259.5v-742h-188v743q0 85 -46.5 135t-120.5 50q-114 0 -196 -23.5t-169 -83.5q0 -1 0.5 -37.5 t0.5 -38.5v-745h-189v743q0 85 -47 135t-121 50q-100 0 -166 -22.5t-186 -86.5v-819h-188z" />
<glyph unicode="n" horiz-adv-x="1116" d="M115 0v1087h140l48 -123q7 4 34 20.5t35.5 21.5t33 19t36 19.5t35 16.5t38.5 15.5t38.5 11.5t43 10t44 5.5t48.5 2.5q161 0 247 -103t86 -254v-749h-188v750q0 92 -45.5 137.5t-121.5 45.5q-104 0 -174 -23.5t-190 -87.5v-822h-188z" />
<glyph unicode="o" horiz-adv-x="1157" d="M96 528q0 135 16 230t50 162t92.5 105.5t136 55.5t188.5 17q113 0 192.5 -18t137 -57.5t90.5 -107.5t48.5 -161.5t15.5 -225.5q0 -155 -23 -255t-80.5 -164.5t-148.5 -91.5t-232 -27q-139 0 -231 28.5t-148.5 95t-80 165.5t-23.5 249zM284 528q0 -63 4.5 -113t14.5 -87.5 t22.5 -64.5t33 -45t41 -29t51.5 -16.5t59 -7.5t69 -2q49 0 81 2.5t66.5 10.5t55.5 24t40.5 42t30 65.5t16.5 93.5t6 127q0 69 -3.5 122t-12 94.5t-19.5 70t-30.5 49t-39.5 32.5t-52 18.5t-62.5 8.5t-76.5 2q-60 0 -96.5 -4t-74 -17.5t-57.5 -39t-37 -70t-23.5 -109.5 t-6.5 -157z" />
<glyph unicode="p" horiz-adv-x="1134" d="M115 -553v1640h143l42 -117q53 40 172 85t211 45q84 0 148 -32t103 -83.5t64 -125t34 -148.5t9 -162q0 -95 -7.5 -170t-30.5 -152t-61 -128t-104 -83t-155 -32q-76 0 -186.5 21t-196.5 57v-615h-185zM300 205q176 -50 363 -50q48 0 80.5 16.5t58.5 59t38 120.5t12 195 q0 377 -189 377q-171 0 -363 -87v-631z" />
<glyph unicode="q" horiz-adv-x="1136" d="M96 549q0 268 96 409.5t286 141.5q45 0 92 -2t95.5 -6t85 -7.5t86 -10t71 -9t66.5 -9.5t48 -7v-1602h-188v612q-83 -38 -182 -58.5t-174 -20.5q-92 0 -160 28t-110 75.5t-67.5 121.5t-35 155.5t-9.5 188.5zM284 539q0 -53 0.5 -80.5t4.5 -75.5t11.5 -74.5t22.5 -61 t37 -52.5t55.5 -31t77.5 -13q101 0 165 9.5t176 40.5v729h-340q-42 0 -75.5 -15t-55.5 -37t-37.5 -57.5t-23.5 -66t-12 -73t-5 -68.5t-1 -62v-12z" />
<glyph unicode="r" horiz-adv-x="866" d="M115 0v1087h143l45 -137q123 80 180 105q99 44 200 44q111 0 144 -15v-184q-52 10 -154 10q-109 0 -186 -26.5t-184 -92.5v-791h-188z" />
<glyph unicode="s" horiz-adv-x="1036" d="M76 727v94q0 134 66 205.5t217 71.5q111 0 294 -12t253 -27v-134h-523q-42 0 -67 -7t-35.5 -24t-13 -32.5t-2.5 -45.5v-82q0 -37 8 -59t26.5 -31t35.5 -11.5t48 -2.5h306q134 0 203 -73.5t69 -195.5v-103q0 -80 -22.5 -135.5t-62.5 -83t-83.5 -38.5t-97.5 -11 q-106 0 -313 15t-261 29v131h549q103 0 103 99v87q0 52 -22 76.5t-81 24.5h-305q-151 0 -220 61t-69 214z" />
<glyph unicode="t" horiz-adv-x="776" d="M38 920v127l196 43l40 303h148v-303h297v-170h-297v-519q0 -83 14.5 -132.5t36.5 -68.5t59 -29q156 -43 170 -43v-127h-199q-269 0 -269 388v531h-196z" />
<glyph unicode="u" horiz-adv-x="1116" d="M96 339v748h188v-749q0 -92 45.5 -137.5t121.5 -45.5q104 0 174 23.5t189 86.5v822h189v-1087h-140l-49 124q-10 -6 -49 -29t-52.5 -30.5t-47.5 -25t-54.5 -24.5t-53 -16.5t-63.5 -13t-66 -3.5q-109 0 -186 51t-111.5 130t-34.5 176z" />
<glyph unicode="v" horiz-adv-x="1112" d="M38 1087h204l312 -833l318 833h204l-425 -1087h-198z" />
<glyph unicode="w" horiz-adv-x="1652" d="M38 1087h204l294 -833l258 833h197l-101 -333l222 -500l300 833h205l-399 -1087h-197l-220 495l-163 -495h-209z" />
<glyph unicode="x" horiz-adv-x="1099" d="M46 0l388 545l-388 542h232l268 -392l277 392h231l-393 -548l377 -539h-215l-273 389l-272 -389h-232z" />
<glyph unicode="y" horiz-adv-x="1146" d="M40 1087h203l243 -825q5 -18 13 -31.5t16.5 -22.5t18 -15t19 -9t18 -4.5t16.5 -1t13.5 1t9.5 1.5l4 1l286 905h205l-451 -1431l-152 -209h-125l182 553q-196 0 -267 239z" />
<glyph unicode="z" horiz-adv-x="942" d="M57 911v176h830v-176l-550 -733h550v-176h-799v176l564 733h-595z" />
<glyph unicode="{" horiz-adv-x="655" d="M38 604v158q4 0 12 1q35 3 55.5 6.5t49.5 14t43.5 32.5t14.5 55v472q0 78 24 145.5t72 121t127.5 84t181.5 30.5v-176q-103 0 -159.5 -49.5t-56.5 -179.5v-453q0 -76 -49.5 -122.5t-131.5 -59.5q79 -12 129 -60.5t50 -115.5v-564q0 -100 58 -153t160 -48v-173 q-113 0 -195 30t-126.5 81.5t-65 111t-20.5 129.5v573q0 59 -52 86.5t-121 22.5z" />
<glyph unicode="|" horiz-adv-x="501" d="M164 -147v1724h177v-1724h-177z" />
<glyph unicode="}" horiz-adv-x="655" d="M38 -257q102 -5 160 48t58 153v564q0 68 49.5 116t128.5 60q-82 13 -131 59.5t-49 122.5v453q0 130 -56.5 179.5t-159.5 49.5v176q102 0 181.5 -30.5t127.5 -84t72 -121t24 -145.5v-472q0 -27 11.5 -47t25.5 -30.5t40 -17.5t42 -9t44 -4q8 -1 12 -1v-158 q-69 5 -121 -22.5t-52 -86.5v-573q0 -70 -20.5 -129.5t-65 -111t-126.5 -81.5t-195 -30v173z" />
<glyph unicode="~" horiz-adv-x="884" d="M96 1179q12 10 43 40t45.5 41.5t41 29t53.5 24.5t58 7q46 0 111.5 -36t105.5 -36q19 0 39.5 4t33 8t34.5 16t28 16t30.5 20.5t25.5 17.5l46 -96q-6 -6 -28 -29t-33.5 -34t-35 -30.5t-42 -29t-44.5 -17.5t-52 -8q-47 0 -116.5 36t-108.5 36q-36 0 -64.5 -9.5t-67.5 -31.5 t-59 -31z" />
<glyph unicode="&#xa1;" horiz-adv-x="552" d="M163 769v128q0 21 13.5 33t35.5 14h120q19 -2 34 -17t15 -36v-120q-4 -55 -47 -55h-122q-24 0 -36.5 14.5t-12.5 38.5zM168 -553l16 1089h176l20 -1089h-212z" />
<glyph unicode="&#xa2;" horiz-adv-x="1001" d="M76 545q0 141 18.5 242.5t50 163t82 96.5t106 46t130.5 8v197h138v-206q163 -19 310 -51v-129q-261 16 -443 16q-44 0 -70 -5t-54.5 -26.5t-43.5 -62.5t-25 -115t-10 -182q0 -152 21 -234t63 -113t119 -31q84 0 198 5.5t186 11.5l73 5v-133q-141 -49 -326 -57v-187h-137 v182q-74 -1 -128 10.5t-105.5 46t-83 95.5t-50.5 163t-19 244z" />
<glyph unicode="&#xa3;" horiz-adv-x="1212" d="M96 0v148l144 34v485h-144v107l144 38v210q0 73 7.5 133t20.5 105.5t34.5 81.5t45 61t57.5 42.5t66 28t76.5 16t83 7.5t91.5 2q52 0 151 -8.5t172 -16.5l73 -8v-147h-395q-41 0 -64.5 -0.5t-54 -2.5t-47 -6t-37.5 -11.5t-31 -18t-23 -27t-18 -37t-11 -48.5t-7.5 -62 t-1.5 -77v-217l528 -35v-110h-528v-485h688v-182h-1020z" />
<glyph unicode="&#xa4;" horiz-adv-x="931" d="M98 913l86 81l87 -87q84 60 187 60q110 0 197 -66l98 96l79 -86l-97 -98q48 -78 48 -170q0 -108 -58 -194l106 -105l-89 -83l-102 101q-81 -60 -182 -60q-97 0 -179 58l-96 -97l-82 91l93 92q-60 86 -60 197q0 99 54 179zM261 640q0 -85 57 -146.5t140 -61.5t140.5 61.5 t57.5 146.5q0 82 -57.5 139.5t-140.5 57.5q-81 0 -139 -58t-58 -139z" />
<glyph unicode="&#xa5;" horiz-adv-x="1247" d="M38 1499h206l361 -688l394 688h211l-490 -832h331v-133h-353v-95h353v-133h-353v-306h-188v306h-333v133h333v95h-333v133h312z" />
<glyph unicode="&#xa6;" horiz-adv-x="503" d="M164 -147v671h177v-671h-177zM164 879v698h177v-698h-177z" />
<glyph unicode="&#xa7;" horiz-adv-x="1124" d="M105 1208v131q0 140 76.5 203.5t196.5 63.5q82 0 288.5 -14.5t275.5 -24.5v-137h-543q-52 0 -78 -21t-27 -74v-124q0 -48 30 -68.5t76 -20.5h335q163 0 225 -66t60 -194v-111q0 -175 -96 -193q94 -15 94 -177v-140q0 -66 -17.5 -114.5t-43.5 -75.5t-66 -42.5t-75.5 -20 t-80.5 -4.5q-84 0 -285 14.5t-269 24.5v137h529q59 0 89 16t31 67v131q0 55 -24 71.5t-86 16.5h-336q-68 0 -115.5 10.5t-86 37.5t-57 77.5t-18.5 126.5v111q0 84 20.5 134t79.5 69q-102 35 -102 180zM294 730q0 -61 24 -78t84 -17h315q27 0 47 3t32 10t19.5 13.5t10.5 20 t3.5 23t0.5 27.5v114q0 30 -2.5 45.5t-13 31t-34 21.5t-63.5 6h-315q-66 0 -87 -20.5t-21 -87.5v-112z" />
<glyph unicode="&#xa8;" horiz-adv-x="927" d="M96 1192q0 45 32 76t77 31t76 -31t31 -76t-31 -77t-76 -32t-77 32t-32 77zM618 1192q0 45 32 76t77 31t76 -31t31 -76t-31 -77t-76 -32t-77 32t-32 77z" />
<glyph unicode="&#xa9;" horiz-adv-x="1654" d="M105 754q0 745 481 745h531q84 0 151 -27.5t111.5 -70t77.5 -107.5t50 -127.5t27.5 -142.5t13 -139t2.5 -131q0 -161 -25 -294.5t-75.5 -238t-135.5 -163t-197 -58.5h-531q-92 0 -167.5 34.5t-126.5 94.5t-88.5 134.5t-58.5 161.5t-30.5 168t-9.5 161zM252 754 q0 -116 20 -222t59 -194t105 -141t150 -54h528q129 2 209.5 156.5t80.5 454.5q0 62 -1.5 111.5t-8.5 115t-18.5 114.5t-33 100.5t-51 85t-74 54.5t-100.5 21h-531q-58 0 -105 -15.5t-91 -56.5t-73.5 -107.5t-47 -173.5t-17.5 -249zM469 748q0 234 79 340t216 106 q132 0 367 -49v-119q-179 25 -355 25q-83 0 -122 -75.5t-39 -234.5q0 -69 7 -119.5t24.5 -92.5t50.5 -63.5t81 -21.5q147 0 366 33v-119q-181 -57 -378 -57q-65 0 -115.5 19.5t-93 67t-65.5 138.5t-23 222z" />
<glyph unicode="&#xaa;" horiz-adv-x="745" d="M57 546v125h633v-125h-633zM57 950v88q0 84 55.5 135.5t155.5 51.5q265 -2 265 0q2 55 0 57q0 54 -29.5 75.5t-89.5 21.5q-69 0 -182.5 -7t-149.5 -8v100q19 4 63.5 13t68 13.5t62.5 10.5t77.5 8.5t81.5 3.5q112 2 181.5 -51.5t69.5 -165.5v-522h-105l-46 98 q-7 -7 -44.5 -30t-104.5 -49.5t-120 -26.5q-90 1 -149.5 51.5t-59.5 132.5zM207 980q0 -77 85 -77q51 0 111 15.5t95 31.5l35 15v161l-244 -18q-82 -8 -82 -80v-48z" />
<glyph unicode="&#xab;" horiz-adv-x="1140" d="M96 725l422 416l120 -120l-304 -296l313 -305l-119 -121zM495 725l422 416l121 -120l-304 -296l313 -305l-120 -121z" />
<glyph unicode="&#xac;" horiz-adv-x="1060" d="M93 515v173h875v-362h-173v189h-702z" />
<glyph unicode="&#xad;" horiz-adv-x="724" d="M41 506v176h643v-176h-643z" />
<glyph unicode="&#xae;" horiz-adv-x="1654" d="M105 754q0 745 481 745h531q84 0 151 -27.5t111.5 -70t77.5 -107.5t50 -127.5t27.5 -142.5t13 -139t2.5 -131q0 -161 -25 -294.5t-75.5 -238t-135.5 -163t-197 -58.5h-531q-92 0 -167.5 34.5t-126.5 94.5t-88.5 134.5t-58.5 161.5t-30.5 168t-9.5 161zM252 754 q0 -116 20 -222t59 -194t105 -141t150 -54h528q129 2 209.5 156.5t80.5 454.5q0 62 -1.5 111.5t-8.5 115t-18.5 114.5t-33 100.5t-51 85t-74 54.5t-100.5 21h-531q-58 0 -105 -15.5t-91 -56.5t-73.5 -107.5t-47 -173.5t-17.5 -249zM527 313v875h366q274 0 274 -265 q0 -47 -7 -85.5t-17 -64t-27.5 -46t-31 -31.5t-36 -20.5t-34.5 -13t-34 -8.5l185 -341h-163l-182 342l-146 25v-367h-147zM674 782h219q79 0 103.5 26.5t24.5 112.5q0 43 -10.5 69.5t-32.5 37.5t-39 13.5t-46 2.5h-219v-262z" />
<glyph unicode="&#xaf;" horiz-adv-x="788" d="M96 1087v139h598v-139h-598z" />
<glyph unicode="&#xb0;" horiz-adv-x="606" d="M96 1294q0 88 61.5 149.5t147.5 61.5t146 -61.5t60 -149.5t-60 -148.5t-146 -60.5q-87 0 -148 61t-61 148zM198 1294q0 -43 31.5 -73.5t75.5 -30.5q43 0 73.5 30t30.5 74t-30.5 75.5t-73.5 31.5t-75 -31.5t-32 -75.5z" />
<glyph unicode="&#xb1;" horiz-adv-x="1062" d="M107 169v176h852v-176h-852zM107 790v176h336v338h176v-338h340v-176h-340v-338h-176v338h-336z" />
<glyph unicode="&#xb2;" horiz-adv-x="798" d="M59.5 1687.5q-0.5 29.5 0 58.5t1.5 28q8 1 38 5t38 5.5t35 4.5t37 4.5t34.5 4t38 3.5t36 2.5t41 2t41 1t45.5 0.5q275 0 275 -284q0 -50 -18.5 -105.5t-42 -99t-67 -97t-71 -83.5t-78 -76t-63 -56.5t-50.5 -41.5h388v-148h-651v139q16 13 58.5 45t75.5 57t80.5 64.5 t83.5 73t75 76t64 80.5t41.5 80.5t16.5 80.5q0 79 -34.5 112.5t-121.5 33.5h-345q-1 0 -1.5 29.5z" />
<glyph unicode="&#xb3;" horiz-adv-x="831" d="M57 1650v108q55 20 131 28.5t122 9.5t157 0q124 0 187.5 -68.5t63.5 -172.5v-69q0 -70 -29 -118t-75 -65q104 -58 104 -196v-54q0 -119 -60 -182.5t-201 -63.5h-48.5h-50t-43.5 0.5t-46.5 1.5t-40 3t-43.5 4.5t-38.5 6.5t-42.5 9.5t-38 12.5l2 109l352 1q82 0 114 25 t32 88v42q0 123 -137 127l-281 10v119l281 14q139 6 139 119v39q0 112 -139 112h-372z" />
<glyph unicode="&#xb4;" horiz-adv-x="495" d="M38 1087l210 276h210l-266 -276h-154z" />
<glyph unicode="&#xb5;" horiz-adv-x="1212" d="M172 339v748h189v-749q0 -92 45.5 -137.5t121.5 -45.5q104 0 174 23.5t189 86.5v822h189v-1087h-141l-48 124q-9 -5 -41.5 -24t-43.5 -25.5t-40 -22t-44.5 -21.5t-42.5 -16.5t-48 -15t-48.5 -8.5t-54.5 -5q-94 -3 -167 40v-579h-189v892z" />
<glyph unicode="&#xb6;" horiz-adv-x="1185" d="M76 1022v190q0 93 47 160t117.5 97t155.5 30h754v-171h-133v-1328h-166v1332h-178v-1885h-167v1315q-1 0 -18 -10.5t-40.5 -18t-51.5 -6.5q-154 0 -237 84t-83 211zM243 1032q0 -42 15.5 -71.5t41.5 -43t49.5 -18.5t49.5 -5h107v438h-107q-85 0 -120.5 -39t-35.5 -95 v-166z" />
<glyph unicode="&#xb7;" horiz-adv-x="550" d="M163 717v135q0 51 49 51h127q51 0 51 -51v-135q0 -47 -51 -47h-127q-22 0 -35.5 12.5t-13.5 34.5z" />
<glyph unicode="&#xb8;" horiz-adv-x="509" d="M96 -269l103 31q39 17 52 56t13 106h152q0 -159 -44.5 -220t-168.5 -61h-107v88z" />
<glyph unicode="&#xb9;" horiz-adv-x="552" d="M31 1572v109l247 113h152v-978h-152v820z" />
<glyph unicode="&#xba;" horiz-adv-x="800" d="M57 1126q0 218 74 300.5t271 82.5q196 0 269 -82.5t73 -300.5q0 -200 -73.5 -280.5t-268.5 -80.5t-270 81t-75 280zM81 551v125h638v-125h-638zM210 1127q0 -63 9.5 -105t23 -65t41 -34.5t51.5 -14t67 -2.5q34 0 51 1t41 5t35.5 12.5t25.5 24t20 39.5t10.5 58t5.5 81 q1 58 -3.5 99t-16.5 67.5t-24.5 41.5t-38.5 22.5t-47 9t-59 1.5q-41 0 -61.5 -1.5t-47 -8.5t-38.5 -22t-24.5 -41.5t-16.5 -67.5t-4 -100z" />
<glyph unicode="&#xbb;" horiz-adv-x="1140" d="M96 420l312 305l-303 296l120 120l422 -416l-432 -426zM495 420l313 305l-304 296l121 120l422 -416l-433 -426z" />
<glyph unicode="&#xbc;" horiz-adv-x="1863" d="M31 1280v110l247 112h152v-978h-152v821zM426 0l749 1511h153l-749 -1511h-153zM1021 294l407 681h169l-347 -589h307v237l55 100h98v-337h115v-125l-115 -29v-233h-153v233h-491z" />
<glyph unicode="&#xbd;" horiz-adv-x="2002" d="M31 1280v110l247 112h152v-978h-152v821zM414 0l749 1511h153l-749 -1511h-153zM1263.5 872q-0.5 29 0 58t1.5 28q8 1 42 5.5t43 6t38 5t41.5 4.5t38.5 4t43 3.5t41.5 2t48 2t49.5 0.5q276 0 276 -284q0 -50 -18.5 -105t-42.5 -99.5t-66.5 -96.5t-71.5 -84t-77 -75.5 t-64.5 -57t-50.5 -41.5h389v-148h-652v140q12 10 68 51.5t90.5 69t91.5 75.5t94 88.5t75.5 89t57.5 96t19 90.5q0 77 -34.5 110t-121.5 33h-347q-1 0 -1.5 29z" />
<glyph unicode="&#xbe;" horiz-adv-x="2101" d="M57 1358v109q55 20 131 28.5t122 9.5t158 0q124 0 188 -69t64 -173v-69q0 -70 -29 -118t-75 -65q104 -58 104 -195v-55q0 -119 -60 -182.5t-202 -63.5h-49h-50t-43.5 0.5t-46.5 1.5t-40 3t-44 4.5t-38 6.5t-42.5 9.5t-38.5 12.5l2 109l354 2q82 0 114 25t32 88v41 q0 123 -138 127l-282 11v118l282 14q140 6 140 119v40q0 111 -140 111h-373zM630 0l749 1511h154l-749 -1511h-154zM1198 296l405 679h163l-348 -594h323v244l49 99h97v-343h115v-118l-115 -30v-232h-146v232h-498z" />
<glyph unicode="&#xbf;" horiz-adv-x="1112" d="M76 35q-2 181 132.5 270t352.5 60v201h179l2 -351q-167 3 -278 0q-74 -3 -123 -57.5t-54 -135.5q-2 -144 -2 -179q0 -88 60 -150t183 -59l546 2q-1 0 -1.5 -14.5t-0.5 -35.5v-42v-35.5t-1 -13.5q-251 -37 -353 -43q-106 -6 -225 -1q-98 -1 -174 23t-120.5 62.5t-73.5 92 t-39 105t-10 108.5v193zM540 788v125q0 22 14.5 36t34.5 16h120q22 -2 35.5 -14t13.5 -33v-130q-3 -48 -44 -51h-132q-39 10 -42 51z" />
<glyph unicode="&#xc0;" horiz-adv-x="1384" d="M86 0l539 1499h199l515 -1499h-214l-123 394h-569l-127 -394h-220zM381 1908h210l210 -276h-154zM494 574h451l-222 654z" />
<glyph unicode="&#xc1;" horiz-adv-x="1384" d="M86 0l539 1499h199l515 -1499h-214l-123 394h-569l-127 -394h-220zM494 574h451l-222 654zM647 1632l210 276h210l-266 -276h-154z" />
<glyph unicode="&#xc2;" horiz-adv-x="1384" d="M86 0l539 1499h199l515 -1499h-214l-123 394h-569l-127 -394h-220zM421 1632l234 270h164l209 -270h-158l-139 140l-151 -140h-159zM494 574h451l-222 654z" />
<glyph unicode="&#xc3;" horiz-adv-x="1384" d="M86 0l539 1499h199l515 -1499h-214l-123 394h-569l-127 -394h-220zM377 1724q48 43 79 67t76.5 45.5t87.5 21.5q55 -3 124 -36.5t95 -34.5q58 -2 187 75l46 -96q-6 -5 -28 -24t-32 -27t-31 -24t-35 -24t-33.5 -17t-38.5 -13t-37 -3q-59 3 -123 37t-99 33 q-40 -1 -69 -10.5t-66 -30.5t-59 -31zM494 574h451l-222 654z" />
<glyph unicode="&#xc4;" horiz-adv-x="1384" d="M86 0l539 1499h199l515 -1499h-214l-123 394h-569l-127 -394h-220zM355 1741q0 45 32 76t77 31t76 -31t31 -76t-31 -77t-76 -32t-77 32t-32 77zM494 574h451l-222 654zM877 1741q0 45 32 76t77 31t76 -31t31 -76t-31 -77t-76 -32t-77 32t-32 77z" />
<glyph unicode="&#xc5;" horiz-adv-x="1384" d="M86 0l539 1499h199l515 -1499h-214l-123 394h-569l-127 -394h-220zM494 574h451l-222 654zM516 1704q0 88 61.5 149.5t147.5 61.5t146.5 -61.5t60.5 -149.5t-60.5 -148.5t-146.5 -60.5q-87 0 -148 61t-61 148zM619 1704q0 -43 31 -73.5t75 -30.5q43 0 73.5 30t30.5 74 t-30.5 75t-73.5 31t-74.5 -31t-31.5 -75z" />
<glyph unicode="&#xc6;" horiz-adv-x="1904" d="M57 0l602 1221q43 87 92.5 144.5t97.5 84t101.5 39.5t106 11t110.5 -1q616 -28 652 -33v-152h-633q-21 0 -37 -3.5t-26.5 -8t-18 -15t-11 -16.5t-6 -21.5t-3 -21.5t-1.5 -24v-374l651 -21v-152l-651 -20v-356q0 -18 2 -32t7.5 -24t10 -17.5t14.5 -12t15 -7.5t19 -4 t18.5 -1h21h19.5l607 -2v-156l-626 -35q-297 -17 -297 258v198h-410l-220 -446h-207zM572 626h322v657z" />
<glyph unicode="&#xc7;" horiz-adv-x="1179" d="M105 754q0 151 13 264t46.5 210.5t90 158.5t144.5 95t209 34q102 0 249 -16t257 -40v-149l-18 1q-17 1 -46.5 3t-67.5 4.5t-84 5t-91.5 4.5t-93.5 3t-87 1q-64 0 -109.5 -9.5t-84.5 -34t-63.5 -65.5t-42 -106.5t-25 -155t-7.5 -212.5q0 -88 6.5 -160t21 -139t40 -117 t61.5 -87.5t87 -57t116 -19.5q96 0 218 4t196 8l74 3v-149q-101 -22 -249 -35.5t-257 -12.5q-111 0 -197.5 37t-143.5 103t-94 163t-52.5 210.5t-15.5 252.5zM388 -267l104 31q39 17 51.5 55.5t12.5 106.5h153q0 -160 -44.5 -221t-168.5 -61h-108v89z" />
<glyph unicode="&#xc8;" horiz-adv-x="1161" d="M152 264v957q0 78 23 135t63.5 87.5t87.5 44t102 11.5q615 -28 651 -33v-151h-633q-38 0 -61 -9t-32 -28.5t-11 -34t-2 -42.5v-362l654 -21v-152l-654 -20v-362q1 -31 9.5 -52.5t18 -32t31 -15.5t32 -5.5t36.5 -0.5h612v-149l-630 -35q-297 -18 -297 270zM354 1899h210 l210 -275h-154z" />
<glyph unicode="&#xc9;" horiz-adv-x="1161" d="M152 264v957q0 78 23 135t63.5 87.5t87.5 44t102 11.5q615 -28 651 -33v-151h-633q-38 0 -61 -9t-32 -28.5t-11 -34t-2 -42.5v-362l654 -21v-152l-654 -20v-362q1 -31 9.5 -52.5t18 -32t31 -15.5t32 -5.5t36.5 -0.5h612v-149l-630 -35q-297 -18 -297 270zM581 1624 l210 275h210l-266 -275h-154z" />
<glyph unicode="&#xca;" horiz-adv-x="1161" d="M152 264v957q0 78 23 135t63.5 87.5t87.5 44t102 11.5q615 -28 651 -33v-151h-633q-38 0 -61 -9t-32 -28.5t-11 -34t-2 -42.5v-362l654 -21v-152l-654 -20v-362q1 -31 9.5 -52.5t18 -32t31 -15.5t32 -5.5t36.5 -0.5h612v-149l-630 -35q-297 -18 -297 270zM344 1632 l235 270h164l209 -270h-158l-139 140l-151 -140h-160z" />
<glyph unicode="&#xcb;" horiz-adv-x="1161" d="M152 264v957q0 78 23 135t63.5 87.5t87.5 44t102 11.5q615 -28 651 -33v-151h-633q-38 0 -61 -9t-32 -28.5t-11 -34t-2 -42.5v-362l654 -21v-152l-654 -20v-362q1 -31 9.5 -52.5t18 -32t31 -15.5t32 -5.5t36.5 -0.5h612v-149l-630 -35q-297 -18 -297 270zM278 1733 q0 45 32 76t77 31t76 -31t31 -76t-31 -77t-76 -32t-77 32t-32 77zM800 1733q0 45 32 76t77 31t76 -31t31 -76t-31 -77t-76 -32t-77 32t-32 77z" />
<glyph unicode="&#xcc;" horiz-adv-x="454" d="M-96 1908h210l210 -276h-154zM153 0v1499h189v-1499h-189z" />
<glyph unicode="&#xcd;" horiz-adv-x="454" d="M153 0v1499h189v-1499h-189zM170 1632l210 276h210l-266 -276h-154z" />
<glyph unicode="&#xce;" horiz-adv-x="454" d="M-56 1632l234 270h164l209 -270h-158l-138 140l-152 -140h-159zM153 0v1499h189v-1499h-189z" />
<glyph unicode="&#xcf;" horiz-adv-x="454" d="M-122 1741q0 45 32 76t77 31t76 -31t31 -76t-31 -77t-76 -32t-77 32t-32 77zM153 0v1499h189v-1499h-189zM400 1741q0 45 32 76t77 31t76 -31t31 -76t-31 -77t-76 -32t-77 32t-32 77z" />
<glyph unicode="&#xd0;" horiz-adv-x="1347" d="M20 706v116h133v675q0 2 581 2q94 0 171.5 -25.5t131.5 -67.5t94.5 -103t65 -125.5t39.5 -143t20 -147t5 -144.5q0 -114 -17 -218.5t-57 -201.5t-99.5 -167.5t-150.5 -113t-203 -42.5h-581v706h-133zM342 184h386q72 0 130 28.5t96.5 79t64 122t37 153.5t11.5 178 q0 154 -24 265.5t-70 176t-106.5 94.5t-138.5 30l-386 -2v-487h269v-116h-269v-522z" />
<glyph unicode="&#xd1;" horiz-adv-x="1390" d="M153 0v1499h193l743 -1149v1149h188v-1499h-188l-745 1146v-1146h-191zM367 1724q73 65 128.5 99.5t115.5 34.5q55 -3 123.5 -36.5t94.5 -34.5q58 -2 187 75l47 -96q-6 -5 -28 -24t-32 -27t-31 -24t-35 -24t-33.5 -17t-38.5 -13t-37 -3q-59 3 -123 37t-99 33 q-40 -1 -69 -10.5t-66 -30.5t-59 -31z" />
<glyph unicode="&#xd2;" d="M125 739q0 116 9 211.5t25 169t42 131t55 98.5t70 70t80.5 46.5t93 27.5t101.5 13t111 3q65 0 113.5 -3t102.5 -13t93 -27.5t79.5 -46.5t68.5 -70t53.5 -98.5t41 -131t24 -169t8.5 -211.5q0 -140 -13.5 -249.5t-37 -188t-63.5 -134.5t-84.5 -89.5t-109 -53t-127.5 -26 t-149 -6.5q-60 0 -106 2.5t-96.5 9.5t-87.5 20.5t-75.5 34t-66.5 51t-54.5 71.5t-44 95.5t-31 122.5t-19.5 153t-6 187zM313 739q0 -126 8 -214t28.5 -152t48 -102t76 -60t102.5 -29.5t136 -7.5q79 0 133.5 8.5t101.5 31.5t75.5 62t49 103t28.5 151t8 209t-9 213t-22 154 t-42 105t-54.5 65t-75 34.5t-87.5 14t-106 2.5t-105 -2.5t-86.5 -13.5t-75.5 -34t-55.5 -65t-43.5 -105t-23.5 -154.5t-9.5 -213.5zM369 1908h210l210 -276h-154z" />
<glyph unicode="&#xd3;" d="M125 739q0 116 9 211.5t25 169t42 131t55 98.5t70 70t80.5 46.5t93 27.5t101.5 13t111 3q65 0 113.5 -3t102.5 -13t93 -27.5t79.5 -46.5t68.5 -70t53.5 -98.5t41 -131t24 -169t8.5 -211.5q0 -140 -13.5 -249.5t-37 -188t-63.5 -134.5t-84.5 -89.5t-109 -53t-127.5 -26 t-149 -6.5q-60 0 -106 2.5t-96.5 9.5t-87.5 20.5t-75.5 34t-66.5 51t-54.5 71.5t-44 95.5t-31 122.5t-19.5 153t-6 187zM313 739q0 -126 8 -214t28.5 -152t48 -102t76 -60t102.5 -29.5t136 -7.5q79 0 133.5 8.5t101.5 31.5t75.5 62t49 103t28.5 151t8 209t-9 213t-22 154 t-42 105t-54.5 65t-75 34.5t-87.5 14t-106 2.5t-105 -2.5t-86.5 -13.5t-75.5 -34t-55.5 -65t-43.5 -105t-23.5 -154.5t-9.5 -213.5zM635 1632l210 276h210l-266 -276h-154z" />
<glyph unicode="&#xd4;" d="M125 739q0 116 9 211.5t25 169t42 131t55 98.5t70 70t80.5 46.5t93 27.5t101.5 13t111 3q65 0 113.5 -3t102.5 -13t93 -27.5t79.5 -46.5t68.5 -70t53.5 -98.5t41 -131t24 -169t8.5 -211.5q0 -140 -13.5 -249.5t-37 -188t-63.5 -134.5t-84.5 -89.5t-109 -53t-127.5 -26 t-149 -6.5q-60 0 -106 2.5t-96.5 9.5t-87.5 20.5t-75.5 34t-66.5 51t-54.5 71.5t-44 95.5t-31 122.5t-19.5 153t-6 187zM313 739q0 -126 8 -214t28.5 -152t48 -102t76 -60t102.5 -29.5t136 -7.5q79 0 133.5 8.5t101.5 31.5t75.5 62t49 103t28.5 151t8 209t-9 213t-22 154 t-42 105t-54.5 65t-75 34.5t-87.5 14t-106 2.5t-105 -2.5t-86.5 -13.5t-75.5 -34t-55.5 -65t-43.5 -105t-23.5 -154.5t-9.5 -213.5zM408 1632l235 270h164l209 -270h-158l-139 140l-151 -140h-160z" />
<glyph unicode="&#xd5;" d="M125 739q0 116 9 211.5t25 169t42 131t55 98.5t70 70t80.5 46.5t93 27.5t101.5 13t111 3q65 0 113.5 -3t102.5 -13t93 -27.5t79.5 -46.5t68.5 -70t53.5 -98.5t41 -131t24 -169t8.5 -211.5q0 -140 -13.5 -249.5t-37 -188t-63.5 -134.5t-84.5 -89.5t-109 -53t-127.5 -26 t-149 -6.5q-60 0 -106 2.5t-96.5 9.5t-87.5 20.5t-75.5 34t-66.5 51t-54.5 71.5t-44 95.5t-31 122.5t-19.5 153t-6 187zM313 739q0 -126 8 -214t28.5 -152t48 -102t76 -60t102.5 -29.5t136 -7.5q79 0 133.5 8.5t101.5 31.5t75.5 62t49 103t28.5 151t8 209t-9 213t-22 154 t-42 105t-54.5 65t-75 34.5t-87.5 14t-106 2.5t-105 -2.5t-86.5 -13.5t-75.5 -34t-55.5 -65t-43.5 -105t-23.5 -154.5t-9.5 -213.5zM364 1724q73 65 128.5 99.5t115.5 34.5q55 -3 123.5 -36.5t94.5 -34.5q58 -2 187 75l47 -96q-6 -5 -28 -24t-32 -27t-31 -24t-35 -24 t-33.5 -17t-38.5 -13t-37 -3q-59 3 -123 37t-99 33q-40 -1 -69 -10.5t-66 -30.5t-59 -31z" />
<glyph unicode="&#xd6;" d="M125 739q0 116 9 211.5t25 169t42 131t55 98.5t70 70t80.5 46.5t93 27.5t101.5 13t111 3q65 0 113.5 -3t102.5 -13t93 -27.5t79.5 -46.5t68.5 -70t53.5 -98.5t41 -131t24 -169t8.5 -211.5q0 -140 -13.5 -249.5t-37 -188t-63.5 -134.5t-84.5 -89.5t-109 -53t-127.5 -26 t-149 -6.5q-60 0 -106 2.5t-96.5 9.5t-87.5 20.5t-75.5 34t-66.5 51t-54.5 71.5t-44 95.5t-31 122.5t-19.5 153t-6 187zM313 739q0 -126 8 -214t28.5 -152t48 -102t76 -60t102.5 -29.5t136 -7.5q79 0 133.5 8.5t101.5 31.5t75.5 62t49 103t28.5 151t8 209t-9 213t-22 154 t-42 105t-54.5 65t-75 34.5t-87.5 14t-106 2.5t-105 -2.5t-86.5 -13.5t-75.5 -34t-55.5 -65t-43.5 -105t-23.5 -154.5t-9.5 -213.5zM343 1741q0 45 32 76t77 31t76 -31t31 -76t-31 -77t-76 -32t-77 32t-32 77zM865 1741q0 45 32 76t77 31t76 -31t31 -76t-31 -77t-76 -32 t-77 32t-32 77z" />
<glyph unicode="&#xd7;" horiz-adv-x="940" d="M107 490l239 237l-239 239l124 126l239 -239l241 239l124 -124l-241 -241l239 -237l-124 -126l-239 239l-237 -237z" />
<glyph unicode="&#xd8;" horiz-adv-x="1384" d="M127 739q0 116 9 211.5t24.5 169t41 131t54 98.5t69 70t80 46.5t93 27.5t102.5 13t113 3q127 0 215 -15t155 -60l44 65h132l-94 -142q134 -173 134 -618q0 -140 -13.5 -249.5t-37.5 -188t-64 -134.5t-85 -89.5t-109.5 -53t-127.5 -26t-149 -6.5q-135 0 -226.5 16 t-159.5 63l-47 -71h-133l99 152q-119 166 -119 587zM316 739q0 -290 54 -402l609 941q-43 32 -102 40.5t-164 8.5q-68 0 -105 -2.5t-86 -13.5t-75 -34t-55.5 -65t-43 -105t-23 -154.5t-9.5 -213.5zM436 236q44 -35 110 -48.5t167 -13.5q79 0 133.5 8.5t101.5 31.5t75.5 62 t49 103t29 151t8.5 209q0 319 -60 443z" />
<glyph unicode="&#xd9;" horiz-adv-x="1378" d="M153 655v844h189v-844q0 -88 5.5 -157t20.5 -119t29.5 -86t44 -58.5t52 -35.5t65 -18.5t72 -7t83.5 -1.5q39 0 65.5 1.5t60.5 6.5t57 14.5t49.5 27t44 42.5t35 61t27.5 83t16 109t6 138v844h190v-844q0 -138 -19 -245t-45.5 -176.5t-75.5 -118t-88.5 -72.5t-106.5 -36.5 t-106 -14.5t-110 -2q-164 0 -229 12q-161 29 -239 160q-93 157 -93 493zM366 1908h210l210 -276h-154z" />
<glyph unicode="&#xda;" horiz-adv-x="1378" d="M153 655v844h189v-844q0 -88 5.5 -157t20.5 -119t29.5 -86t44 -58.5t52 -35.5t65 -18.5t72 -7t83.5 -1.5q39 0 65.5 1.5t60.5 6.5t57 14.5t49.5 27t44 42.5t35 61t27.5 83t16 109t6 138v844h190v-844q0 -138 -19 -245t-45.5 -176.5t-75.5 -118t-88.5 -72.5t-106.5 -36.5 t-106 -14.5t-110 -2q-164 0 -229 12q-161 29 -239 160q-93 157 -93 493zM632 1632l210 276h210l-266 -276h-154z" />
<glyph unicode="&#xdb;" horiz-adv-x="1378" d="M153 655v844h189v-844q0 -88 5.5 -157t20.5 -119t29.5 -86t44 -58.5t52 -35.5t65 -18.5t72 -7t83.5 -1.5q39 0 65.5 1.5t60.5 6.5t57 14.5t49.5 27t44 42.5t35 61t27.5 83t16 109t6 138v844h190v-844q0 -138 -19 -245t-45.5 -176.5t-75.5 -118t-88.5 -72.5t-106.5 -36.5 t-106 -14.5t-110 -2q-164 0 -229 12q-161 29 -239 160q-93 157 -93 493zM406 1632l234 270h164l209 -270h-158l-139 140l-151 -140h-159z" />
<glyph unicode="&#xdc;" horiz-adv-x="1378" d="M153 655v844h189v-844q0 -88 5.5 -157t20.5 -119t29.5 -86t44 -58.5t52 -35.5t65 -18.5t72 -7t83.5 -1.5q39 0 65.5 1.5t60.5 6.5t57 14.5t49.5 27t44 42.5t35 61t27.5 83t16 109t6 138v844h190v-844q0 -138 -19 -245t-45.5 -176.5t-75.5 -118t-88.5 -72.5t-106.5 -36.5 t-106 -14.5t-110 -2q-164 0 -229 12q-161 29 -239 160q-93 157 -93 493zM340 1741q0 45 32 76t77 31t76 -31t31 -76t-31 -77t-76 -32t-77 32t-32 77zM862 1741q0 45 32 76t77 31t76 -31t31 -76t-31 -77t-76 -32t-77 32t-32 77z" />
<glyph unicode="&#xdd;" horiz-adv-x="1304" d="M86 1499h206l361 -768l399 768h205l-511 -985v-514h-188v514zM595 1632l210 276h210l-266 -276h-154z" />
<glyph unicode="&#xde;" horiz-adv-x="1134" d="M115 0v1493h188v-289h376q361 -4 361 -436q0 -120 -24 -208t-58.5 -135.5t-86.5 -76t-95 -36t-97 -7.5q-12 0 -41 -0.5t-39.5 -0.5t-36.5 1t-46 3.5t-52.5 6.5t-71.5 11.5t-89 17.5v-344h-188zM303 484h352q44 -1 75.5 9.5t60.5 39.5t43.5 88.5t14.5 149.5 q-1 70 -15 119.5t-32.5 74.5t-48 39t-49.5 16.5t-49 2.5h-352v-539z" />
<glyph unicode="&#xdf;" horiz-adv-x="1167" d="M115 0v1159q0 186 124 310t342 124q144 0 247.5 -37.5t153.5 -97t69 -133.5t3.5 -148.5t-53.5 -141t-93 -110.5q-20 -18 -58 -49t-52.5 -44.5t-34 -35.5t-26.5 -41t-7 -42q0 -26 22 -44.5t57.5 -30.5t78 -24t85.5 -30t78.5 -44t57.5 -71t22 -105v-88q1 -66 -20.5 -118.5 t-54.5 -84t-78.5 -52.5t-88.5 -29t-88 -8q-62 0 -125.5 7t-132 18.5t-83.5 13.5v144q27 0 142 -5t186 -5q61 0 106.5 35t47.5 94v84q0 31 -22 51.5t-57 33t-77 23.5t-84.5 27.5t-77.5 40.5t-57 66.5t-22 101.5q0 96 44 156.5t186 167.5q97 76 97 195q0 179 -288 179 q-128 0 -204.5 -67t-76.5 -213v-1132h-188z" />
<glyph unicode="&#xe0;" horiz-adv-x="1062" d="M76 263v119q0 126 74.5 203t210.5 77q418 -2 418 0q2 116 0 118q0 87 -41.5 123t-120.5 36q-167 0 -505 -24v128q199 62 520 65q151 2 243.5 -77.5t92.5 -247.5v-783h-144l-45 128q-3 -3 -28.5 -17t-71 -35t-96.5 -41t-112.5 -33.5t-112.5 -13.5q-125 2 -203.5 77 t-78.5 198zM203 1506h210l210 -275h-154zM265 282q0 -67 30.5 -94t84.5 -27q68 0 167.5 24.5t165.5 49.5l66 25v267l-402 -29q-112 -11 -112 -127v-89z" />
<glyph unicode="&#xe1;" horiz-adv-x="1062" d="M76 263v119q0 126 74.5 203t210.5 77q418 -2 418 0q2 116 0 118q0 87 -41.5 123t-120.5 36q-167 0 -505 -24v128q199 62 520 65q151 2 243.5 -77.5t92.5 -247.5v-783h-144l-45 128q-3 -3 -28.5 -17t-71 -35t-96.5 -41t-112.5 -33.5t-112.5 -13.5q-125 2 -203.5 77 t-78.5 198zM265 282q0 -67 30.5 -94t84.5 -27q68 0 167.5 24.5t165.5 49.5l66 25v267l-402 -29q-112 -11 -112 -127v-89zM461 1231l210 275h210l-267 -275h-153z" />
<glyph unicode="&#xe2;" horiz-adv-x="1062" d="M76 263v119q0 126 74.5 203t210.5 77q418 -2 418 0q2 116 0 118q0 87 -41.5 123t-120.5 36q-167 0 -505 -24v128q199 62 520 65q151 2 243.5 -77.5t92.5 -247.5v-783h-144l-45 128q-3 -3 -28.5 -17t-71 -35t-96.5 -41t-112.5 -33.5t-112.5 -13.5q-125 2 -203.5 77 t-78.5 198zM237 1231l234 269h164l209 -269h-158l-139 139l-151 -139h-159zM265 282q0 -67 30.5 -94t84.5 -27q68 0 167.5 24.5t165.5 49.5l66 25v267l-402 -29q-112 -11 -112 -127v-89z" />
<glyph unicode="&#xe3;" horiz-adv-x="1062" d="M76 263v119q0 126 74.5 203t210.5 77q418 -2 418 0q2 116 0 118q0 87 -41.5 123t-120.5 36q-167 0 -505 -24v128q199 62 520 65q151 2 243.5 -77.5t92.5 -247.5v-783h-144l-45 128q-3 -3 -28.5 -17t-71 -35t-96.5 -41t-112.5 -33.5t-112.5 -13.5q-125 2 -203.5 77 t-78.5 198zM184 1323q48 43 79 67t76.5 45.5t87.5 21.5q55 -3 124 -37t95 -35q58 -2 187 75l46 -96q-6 -5 -28 -24t-31.5 -26.5t-30.5 -24t-35.5 -24t-34 -17t-38 -13t-36.5 -2.5q-59 3 -123 37t-99 33q-40 -1 -69 -10.5t-66 -30.5t-59 -31zM265 282q0 -67 30.5 -94 t84.5 -27q68 0 167.5 24.5t165.5 49.5l66 25v267l-402 -29q-112 -11 -112 -127v-89z" />
<glyph unicode="&#xe4;" horiz-adv-x="1062" d="M76 263v119q0 126 74.5 203t210.5 77q418 -2 418 0q2 116 0 118q0 87 -41.5 123t-120.5 36q-167 0 -505 -24v128q199 62 520 65q151 2 243.5 -77.5t92.5 -247.5v-783h-144l-45 128q-3 -3 -28.5 -17t-71 -35t-96.5 -41t-112.5 -33.5t-112.5 -13.5q-125 2 -203.5 77 t-78.5 198zM168 1340q0 45 32 76t77 31t76 -31t31 -76t-31 -77t-76 -32t-77 32t-32 77zM265 282q0 -67 30.5 -94t84.5 -27q68 0 167.5 24.5t165.5 49.5l66 25v267l-402 -29q-112 -11 -112 -127v-89zM690 1340q0 45 32 76t77 31t76 -31t31 -76t-31 -77t-76 -32t-77 32t-32 77 z" />
<glyph unicode="&#xe5;" horiz-adv-x="1062" d="M76 263v119q0 126 74.5 203t210.5 77q418 -2 418 0q2 116 0 118q0 87 -41.5 123t-120.5 36q-167 0 -505 -24v128q199 62 520 65q151 2 243.5 -77.5t92.5 -247.5v-783h-144l-45 128q-3 -3 -28.5 -17t-71 -35t-96.5 -41t-112.5 -33.5t-112.5 -13.5q-125 2 -203.5 77 t-78.5 198zM265 282q0 -67 30.5 -94t84.5 -27q68 0 167.5 24.5t165.5 49.5l66 25v267l-402 -29q-112 -11 -112 -127v-89zM332 1388q0 88 61 149t148 61q86 0 146.5 -61t60.5 -149t-60.5 -148.5t-146.5 -60.5q-87 0 -148 61t-61 148zM435 1388q0 -43 31 -74t75 -31 q43 0 73.5 30.5t30.5 74.5t-30.5 75t-73.5 31t-74.5 -31t-31.5 -75z" />
<glyph unicode="&#xe6;" horiz-adv-x="1767" d="M76 274v79q0 125 74.5 202t210.5 77q418 -2 418 0q2 157 0 159q0 87 -41 122.5t-121 35.5q-157 0 -505 -24v129q172 61 520 64q185 2 268 -110q55 58 139.5 78t223.5 20q50 0 86.5 -1.5t77 -6t69 -13t58 -22.5t49.5 -34.5t38 -49t28.5 -65.5t16.5 -85t6 -107 q0 -127 -70 -190t-217 -63h-428q0 -121 21 -184.5t65 -87.5t127 -24h52.5h53.5h48t50.5 0.5t45.5 1.5t48.5 2t44 2.5t48 3.5t43.5 5t47 6v-136q-189 -58 -524 -58q-82 0 -141.5 19t-94 47t-74.5 77q-6 -9 -85 -43t-196.5 -68t-197.5 -34q-125 2 -203.5 77.5t-78.5 198.5z M265 291q0 -67 30.5 -93.5t84.5 -26.5q68 0 167.5 24.5t165.5 49.5l66 25v238l-402 -29q-112 -11 -112 -127v-61zM977 631h407q119 0 119 95q0 51 -3 83.5t-14 57t-25 37.5t-44 20.5t-61.5 9.5t-86.5 2q-66 0 -96 -1.5t-72 -10t-58.5 -26.5t-35.5 -52t-24.5 -86.5 t-5.5 -128.5z" />
<glyph unicode="&#xe7;" horiz-adv-x="1019" d="M96 545q0 137 17.5 237t47.5 161t77 97t97.5 48.5t118.5 12.5q83 0 224 -17.5t252 -42.5v-129q-260 16 -442 16q-44 0 -70 -5t-55 -26.5t-44 -62.5t-25 -115t-10 -182q0 -152 21 -234t63.5 -113t119.5 -31q84 0 198 5.5t186 11.5l73 5v-133q-77 -26 -166.5 -40 t-154 -17.5t-170.5 -4.5q-66 0 -116 12.5t-97.5 49t-77.5 97.5t-48.5 162t-18.5 238zM349 -269l104 31q39 17 51.5 55.5t12.5 106.5h152q0 -160 -44.5 -221t-168.5 -61h-107v89z" />
<glyph unicode="&#xe8;" horiz-adv-x="1075" d="M96 549q0 120 11 207t37.5 148t61.5 98.5t92.5 58.5t119.5 28t153 7q57 0 97 -2t84.5 -8t74 -18t60 -31t49 -48t34 -68.5t22.5 -92.5t7 -120q0 -256 -287 -256h-428q0 -120 21 -182t64.5 -84.5t127.5 -22.5h73.5h77t64.5 0.5t72 2t61 3.5t70 5.5t63 8.5v-136 q-186 -57 -524 -57q-140 0 -216.5 53.5t-109 172t-32.5 333.5zM230 1496h210l210 -275h-154zM284 616h408q118 0 118 96q0 51 -3 83.5t-14 58t-25 38.5t-43 21.5t-61.5 10.5t-86.5 2q-38 0 -59.5 -0.5t-51.5 -2.5t-45.5 -6.5t-37 -12t-32.5 -19t-24.5 -28.5t-19.5 -39.5 t-12.5 -52t-8.5 -66.5t-2 -83z" />
<glyph unicode="&#xe9;" horiz-adv-x="1075" d="M96 549q0 120 11 207t37.5 148t61.5 98.5t92.5 58.5t119.5 28t153 7q57 0 97 -2t84.5 -8t74 -18t60 -31t49 -48t34 -68.5t22.5 -92.5t7 -120q0 -256 -287 -256h-428q0 -120 21 -182t64.5 -84.5t127.5 -22.5h73.5h77t64.5 0.5t72 2t61 3.5t70 5.5t63 8.5v-136 q-186 -57 -524 -57q-140 0 -216.5 53.5t-109 172t-32.5 333.5zM284 616h408q118 0 118 96q0 51 -3 83.5t-14 58t-25 38.5t-43 21.5t-61.5 10.5t-86.5 2q-38 0 -59.5 -0.5t-51.5 -2.5t-45.5 -6.5t-37 -12t-32.5 -19t-24.5 -28.5t-19.5 -39.5t-12.5 -52t-8.5 -66.5t-2 -83z M479 1221l210 275h210l-267 -275h-153z" />
<glyph unicode="&#xea;" horiz-adv-x="1075" d="M96 549q0 120 11 207t37.5 148t61.5 98.5t92.5 58.5t119.5 28t153 7q57 0 97 -2t84.5 -8t74 -18t60 -31t49 -48t34 -68.5t22.5 -92.5t7 -120q0 -256 -287 -256h-428q0 -120 21 -182t64.5 -84.5t127.5 -22.5h73.5h77t64.5 0.5t72 2t61 3.5t70 5.5t63 8.5v-136 q-186 -57 -524 -57q-140 0 -216.5 53.5t-109 172t-32.5 333.5zM253 1221l235 269h163l209 -269h-157l-139 139l-151 -139h-160zM284 616h408q118 0 118 96q0 51 -3 83.5t-14 58t-25 38.5t-43 21.5t-61.5 10.5t-86.5 2q-38 0 -59.5 -0.5t-51.5 -2.5t-45.5 -6.5t-37 -12 t-32.5 -19t-24.5 -28.5t-19.5 -39.5t-12.5 -52t-8.5 -66.5t-2 -83z" />
<glyph unicode="&#xeb;" horiz-adv-x="1075" d="M96 549q0 120 11 207t37.5 148t61.5 98.5t92.5 58.5t119.5 28t153 7q57 0 97 -2t84.5 -8t74 -18t60 -31t49 -48t34 -68.5t22.5 -92.5t7 -120q0 -256 -287 -256h-428q0 -120 21 -182t64.5 -84.5t127.5 -22.5h73.5h77t64.5 0.5t72 2t61 3.5t70 5.5t63 8.5v-136 q-186 -57 -524 -57q-140 0 -216.5 53.5t-109 172t-32.5 333.5zM182 1330q0 45 32.5 76t77.5 31t76 -31t31 -76t-31 -77t-76 -32t-77.5 32t-32.5 77zM284 616h408q118 0 118 96q0 51 -3 83.5t-14 58t-25 38.5t-43 21.5t-61.5 10.5t-86.5 2q-38 0 -59.5 -0.5t-51.5 -2.5 t-45.5 -6.5t-37 -12t-32.5 -19t-24.5 -28.5t-19.5 -39.5t-12.5 -52t-8.5 -66.5t-2 -83zM705 1330q0 45 32 76t77 31t76 -31t31 -76t-31 -77t-76 -32t-77 32t-32 77z" />
<glyph unicode="&#xec;" horiz-adv-x="417" d="M-134 1496h210l210 -275h-154zM115 0v1087h188v-1087h-188z" />
<glyph unicode="&#xed;" horiz-adv-x="417" d="M115 0v1087h188v-1087h-188zM132 1221l210 275h210l-266 -275h-154z" />
<glyph unicode="&#xee;" horiz-adv-x="417" d="M-95 1221l235 269h164l209 -269h-158l-139 139l-151 -139h-160zM115 0v1087h188v-1087h-188z" />
<glyph unicode="&#xef;" horiz-adv-x="417" d="M-160 1330q0 45 32 76t77 31t76 -31t31 -76t-31 -77t-76 -32t-77 32t-32 77zM115 0v1087h188v-1087h-188zM362 1330q0 45 32 76t77 31t76 -31t31 -76t-31 -77t-76 -32t-77 32t-32 77z" />
<glyph unicode="&#xf0;" horiz-adv-x="1101" d="M76 541q0 273 85 409.5t285 136.5h180q117 0 147 -27q-47 158 -143 251l-279 -117l-52 122l203 84q-103 51 -264 43v161q289 0 454 -122l228 94l53 -121l-173 -71q227 -274 227 -843q0 -149 -27 -256t-78 -168t-117 -89t-151 -28h-208q-205 0 -287.5 128.5t-82.5 412.5z M265 541q0 -98 10 -165t25 -104.5t42.5 -57t52 -24t64.5 -4.5h182q114 0 155.5 85t41.5 270q0 217 -39 290.5t-158 73.5h-182q-51 0 -84 -14t-59.5 -52t-38.5 -111t-12 -187z" />
<glyph unicode="&#xf1;" horiz-adv-x="1116" d="M115 0v1087h140l48 -123q7 4 34 20.5t35.5 21.5t33 19t36 19.5t35 16.5t38.5 15.5t38.5 11.5t43 10t44 5.5t48.5 2.5q161 0 247 -103t86 -254v-749h-188v750q0 92 -45.5 137.5t-121.5 45.5q-104 0 -174 -23.5t-190 -87.5v-822h-188zM221 1321q48 43 79 67t76.5 45.5 t87.5 21.5q55 -3 124 -37t95 -35q58 -2 187 75l46 -96q-6 -5 -28 -24t-31.5 -26.5t-30.5 -24t-35.5 -24t-34 -17t-38 -13t-36.5 -2.5q-59 3 -123 36.5t-99 32.5q-40 -1 -69 -10.5t-66 -30.5t-59 -30z" />
<glyph unicode="&#xf2;" horiz-adv-x="1157" d="M96 528q0 135 16 230t50 162t92.5 105.5t136 55.5t188.5 17q113 0 192.5 -18t137 -57.5t90.5 -107.5t48.5 -161.5t15.5 -225.5q0 -155 -23 -255t-80.5 -164.5t-148.5 -91.5t-232 -27q-139 0 -231 28.5t-148.5 95t-80 165.5t-23.5 249zM254 1496h210l210 -275h-154z M284 528q0 -63 4.5 -113t14.5 -87.5t22.5 -64.5t33 -45t41 -29t51.5 -16.5t59 -7.5t69 -2q49 0 81 2.5t66.5 10.5t55.5 24t40.5 42t30 65.5t16.5 93.5t6 127q0 69 -3.5 122t-12 94.5t-19.5 70t-30.5 49t-39.5 32.5t-52 18.5t-62.5 8.5t-76.5 2q-60 0 -96.5 -4t-74 -17.5 t-57.5 -39t-37 -70t-23.5 -109.5t-6.5 -157z" />
<glyph unicode="&#xf3;" horiz-adv-x="1157" d="M96 528q0 135 16 230t50 162t92.5 105.5t136 55.5t188.5 17q113 0 192.5 -18t137 -57.5t90.5 -107.5t48.5 -161.5t15.5 -225.5q0 -155 -23 -255t-80.5 -164.5t-148.5 -91.5t-232 -27q-139 0 -231 28.5t-148.5 95t-80 165.5t-23.5 249zM284 528q0 -63 4.5 -113t14.5 -87.5 t22.5 -64.5t33 -45t41 -29t51.5 -16.5t59 -7.5t69 -2q49 0 81 2.5t66.5 10.5t55.5 24t40.5 42t30 65.5t16.5 93.5t6 127q0 69 -3.5 122t-12 94.5t-19.5 70t-30.5 49t-39.5 32.5t-52 18.5t-62.5 8.5t-76.5 2q-60 0 -96.5 -4t-74 -17.5t-57.5 -39t-37 -70t-23.5 -109.5 t-6.5 -157zM503 1221l210 275h210l-267 -275h-153z" />
<glyph unicode="&#xf4;" horiz-adv-x="1157" d="M96 528q0 135 16 230t50 162t92.5 105.5t136 55.5t188.5 17q113 0 192.5 -18t137 -57.5t90.5 -107.5t48.5 -161.5t15.5 -225.5q0 -155 -23 -255t-80.5 -164.5t-148.5 -91.5t-232 -27q-139 0 -231 28.5t-148.5 95t-80 165.5t-23.5 249zM284 528q0 -63 4.5 -113t14.5 -87.5 t22.5 -64.5t33 -45t41 -29t51.5 -16.5t59 -7.5t69 -2q49 0 81 2.5t66.5 10.5t55.5 24t40.5 42t30 65.5t16.5 93.5t6 127q0 69 -3.5 122t-12 94.5t-19.5 70t-30.5 49t-39.5 32.5t-52 18.5t-62.5 8.5t-76.5 2q-60 0 -96.5 -4t-74 -17.5t-57.5 -39t-37 -70t-23.5 -109.5 t-6.5 -157zM285 1221l234 269h164l209 -269h-158l-139 139l-151 -139h-159z" />
<glyph unicode="&#xf5;" horiz-adv-x="1157" d="M96 528q0 135 16 230t50 162t92.5 105.5t136 55.5t188.5 17q113 0 192.5 -18t137 -57.5t90.5 -107.5t48.5 -161.5t15.5 -225.5q0 -155 -23 -255t-80.5 -164.5t-148.5 -91.5t-232 -27q-139 0 -231 28.5t-148.5 95t-80 165.5t-23.5 249zM248 1313q48 43 79 67t76.5 45.5 t87.5 21.5q55 -3 124 -37t95 -35q58 -2 187 75l46 -96q-6 -5 -28 -24t-32 -27t-31 -24t-35 -24t-33.5 -17t-38.5 -13t-37 -3q-59 3 -123 37t-99 33q-40 -1 -69 -10.5t-66 -30.5t-59 -30zM284 528q0 -63 4.5 -113t14.5 -87.5t22.5 -64.5t33 -45t41 -29t51.5 -16.5t59 -7.5 t69 -2q49 0 81 2.5t66.5 10.5t55.5 24t40.5 42t30 65.5t16.5 93.5t6 127q0 69 -3.5 122t-12 94.5t-19.5 70t-30.5 49t-39.5 32.5t-52 18.5t-62.5 8.5t-76.5 2q-60 0 -96.5 -4t-74 -17.5t-57.5 -39t-37 -70t-23.5 -109.5t-6.5 -157z" />
<glyph unicode="&#xf6;" horiz-adv-x="1157" d="M96 528q0 135 16 230t50 162t92.5 105.5t136 55.5t188.5 17q113 0 192.5 -18t137 -57.5t90.5 -107.5t48.5 -161.5t15.5 -225.5q0 -155 -23 -255t-80.5 -164.5t-148.5 -91.5t-232 -27q-139 0 -231 28.5t-148.5 95t-80 165.5t-23.5 249zM212 1330q0 45 32 76t77 31t76 -31 t31 -76t-31 -77t-76 -32t-77 32t-32 77zM284 528q0 -63 4.5 -113t14.5 -87.5t22.5 -64.5t33 -45t41 -29t51.5 -16.5t59 -7.5t69 -2q49 0 81 2.5t66.5 10.5t55.5 24t40.5 42t30 65.5t16.5 93.5t6 127q0 69 -3.5 122t-12 94.5t-19.5 70t-30.5 49t-39.5 32.5t-52 18.5 t-62.5 8.5t-76.5 2q-60 0 -96.5 -4t-74 -17.5t-57.5 -39t-37 -70t-23.5 -109.5t-6.5 -157zM734 1330q0 45 32 76t77 31t76 -31t31 -76t-31 -77t-76 -32t-77 32t-32 77z" />
<glyph unicode="&#xf7;" horiz-adv-x="1046" d="M96 635v176h855v-176h-855zM420 344v118q0 51 49 51h115q23 0 35.5 -14t12.5 -37v-118q0 -47 -48 -47h-115q-22 0 -35.5 12.5t-13.5 34.5zM420 970v118q0 51 49 51h115q23 0 35.5 -14t12.5 -37v-118q0 -47 -48 -47h-115q-22 0 -35.5 12.5t-13.5 34.5z" />
<glyph unicode="&#xf8;" horiz-adv-x="1169" d="M97 0l96 128q-91 119 -91 400q0 169 24.5 277t83.5 174t148 92.5t228 26.5q192 0 294 -53l33 42h141l-86 -114q54 -64 77.5 -171.5t23.5 -273.5q0 -155 -23 -255t-80 -164.5t-148 -91.5t-232 -27q-207 0 -314 65l-42 -55h-133zM290 528q0 -155 35 -230l444 600 q-54 27 -183 27q-60 0 -96.5 -4t-74 -17.5t-58 -39t-37.5 -70t-23.5 -109.5t-6.5 -157zM385 202q32 -24 79 -31.5t122 -7.5q58 0 94 3.5t73 16t58 36t38.5 64t24.5 100.5t7 145q0 205 -42 281z" />
<glyph unicode="&#xf9;" horiz-adv-x="1116" d="M96 339v748h188v-749q0 -92 45.5 -137.5t121.5 -45.5q104 0 174 23.5t189 86.5v822h189v-1087h-140l-49 124q-10 -6 -49 -29t-52.5 -30.5t-47.5 -25t-54.5 -24.5t-53 -16.5t-63.5 -13t-66 -3.5q-109 0 -186 51t-111.5 130t-34.5 176zM224 1496h210l209 -275h-153z" />
<glyph unicode="&#xfa;" horiz-adv-x="1116" d="M96 339v748h188v-749q0 -92 45.5 -137.5t121.5 -45.5q104 0 174 23.5t189 86.5v822h189v-1087h-140l-49 124q-10 -6 -49 -29t-52.5 -30.5t-47.5 -25t-54.5 -24.5t-53 -16.5t-63.5 -13t-66 -3.5q-109 0 -186 51t-111.5 130t-34.5 176zM472 1221l210 275h210l-266 -275 h-154z" />
<glyph unicode="&#xfb;" horiz-adv-x="1116" d="M96 339v748h188v-749q0 -92 45.5 -137.5t121.5 -45.5q104 0 174 23.5t189 86.5v822h189v-1087h-140l-49 124q-10 -6 -49 -29t-52.5 -30.5t-47.5 -25t-54.5 -24.5t-53 -16.5t-63.5 -13t-66 -3.5q-109 0 -186 51t-111.5 130t-34.5 176zM246 1221l234 269h164l209 -269h-158 l-138 139l-152 -139h-159z" />
<glyph unicode="&#xfc;" horiz-adv-x="1116" d="M96 339v748h188v-749q0 -92 45.5 -137.5t121.5 -45.5q104 0 174 23.5t189 86.5v822h189v-1087h-140l-49 124q-10 -6 -49 -29t-52.5 -30.5t-47.5 -25t-54.5 -24.5t-53 -16.5t-63.5 -13t-66 -3.5q-109 0 -186 51t-111.5 130t-34.5 176zM180 1330q0 45 32 76t77 31t76 -31 t31 -76t-31 -77t-76 -32t-77 32t-32 77zM702 1330q0 45 32 76t77 31t76 -31t31 -76t-31 -77t-76 -32t-77 32t-32 77z" />
<glyph unicode="&#xfd;" horiz-adv-x="1146" d="M40 1087h203l243 -825q5 -18 13 -31.5t16.5 -22.5t18 -15t19 -9t18 -4.5t16.5 -1t13.5 1t9.5 1.5l4 1l286 905h205l-451 -1431l-152 -209h-125l182 553q-196 0 -267 239zM496 1221l210 275h210l-266 -275h-154z" />
<glyph unicode="&#xfe;" horiz-adv-x="1134" d="M134 -553v2155h188v-636q56 42 172.5 89.5t207.5 47.5q80 0 142 -30t102 -81t66 -123.5t36.5 -152t10.5 -171.5q0 -79 -5 -142t-18 -131t-38.5 -118t-64 -91.5t-97 -63t-134.5 -21.5t-185 21t-195 57v-609h-188zM322 198q35 -10 72 -18t62 -12.5t65 -8t54 -4.5t57.5 -3 t49.5 -2q46 0 78.5 17t58.5 59.5t39 121.5t13 197q0 186 -50 283.5t-139 97.5q-159 -9 -360 -94v-634z" />
<glyph unicode="&#xff;" horiz-adv-x="1146" d="M40 1087h203l243 -825q5 -18 13 -31.5t16.5 -22.5t18 -15t19 -9t18 -4.5t16.5 -1t13.5 1t9.5 1.5l4 1l286 905h205l-451 -1431l-152 -209h-125l182 553q-196 0 -267 239zM204 1330q0 45 32 76t77 31t76 -31t31 -76t-31 -77t-76 -32t-77 32t-32 77zM726 1330q0 45 32 76 t77 31t76 -31t31 -76t-31 -77t-76 -32t-77 32t-32 77z" />
<glyph unicode="&#x152;" horiz-adv-x="2134" d="M125 739q0 116 9 211.5t25 169t42 131t54.5 98.5t69.5 70t80.5 46.5t92.5 27.5t101 13t111 3q158 0 262 -28t173 -110q32 70 95 101.5t144 26.5q610 -28 646 -33v-151h-628q-38 0 -61 -9t-32 -28.5t-11 -34t-2 -42.5v-362l649 -21v-152l-649 -20v-362q1 -31 9.5 -52.5 t18 -32t31 -15.5t32 -5.5t36.5 -0.5h607v-149l-626 -35q-206 -12 -264 128q-69 -76 -172 -103t-258 -27q-103 0 -172.5 8t-142 33.5t-117.5 76.5t-82.5 132t-54 205t-16.5 292zM313 739q0 -126 7.5 -214t28 -152t48 -102t75.5 -60t102 -29.5t136 -7.5q79 0 133.5 8.5 t101.5 31.5t75.5 62t49 103t29 151t8.5 209t-9 213t-22.5 154t-42.5 105t-54.5 65t-75 34.5t-87.5 14t-106 2.5t-105 -2.5t-86 -13.5t-75 -34t-55.5 -65t-43 -105t-23 -154.5t-9.5 -213.5z" />
<glyph unicode="&#x153;" horiz-adv-x="1849" d="M96 528q0 135 16 230t50 162t92.5 105.5t136 55.5t188.5 17q143 0 235.5 -31t145.5 -100q51 76 141.5 102.5t245.5 26.5q57 0 97 -2t84.5 -8t74 -18t60 -31t49 -48t34 -68.5t22.5 -92.5t7 -120q0 -256 -287 -256h-426q-5 -163 42 -226t169 -63h73.5h77t64.5 0.5t72 2 t61 3.5t70 5.5t63 8.5v-136q-186 -57 -524 -57q-103 0 -169.5 28.5t-105.5 92.5q-101 -121 -376 -121q-139 0 -231 28.5t-148.5 95t-80 165.5t-23.5 249zM284 528q0 -63 4.5 -113t14.5 -87.5t22.5 -64.5t33 -45t41 -29t51.5 -16.5t59 -7.5t69 -2q67 0 111.5 6t78.5 24.5 t53 43.5t30.5 72.5t15 101t3.5 138.5q0 121 -12.5 192t-47.5 113.5t-88 56.5t-144 14q-60 0 -96.5 -4t-74 -17.5t-57.5 -39t-37 -70t-23.5 -109.5t-6.5 -157zM1062 616h406q118 0 118 96q0 51 -3 83.5t-14 58t-25 38.5t-43 21.5t-61.5 10.5t-86.5 2q-60 0 -96.5 -3 t-74.5 -13.5t-58.5 -30.5t-37 -54.5t-22 -85.5t-2.5 -123z" />
<glyph unicode="&#x178;" horiz-adv-x="1304" d="M86 1499h206l361 -768l399 768h205l-511 -985v-514h-188v514zM303 1741q0 45 32 76t77 31t76 -31t31 -76t-31 -77t-76 -32t-77 32t-32 77zM825 1741q0 45 32 76t77 31t76 -31t31 -76t-31 -77t-76 -32t-77 32t-32 77z" />
<glyph unicode="&#x2c6;" horiz-adv-x="796" d="M96 1087l234 270h164l209 -270h-158l-138 140l-152 -140h-159zM494 1357z" />
<glyph unicode="&#x2dc;" horiz-adv-x="884" d="M96 1179q49 44 79.5 68t76 45.5t87.5 21.5q55 -3 124 -37t95 -35q58 -2 187 75l46 -96q-6 -5 -28 -24t-32 -27t-31 -24t-35 -24t-33.5 -17t-38.5 -13t-37 -3q-59 3 -123 37t-99 33q-40 -1 -69 -10.5t-66 -30.5t-59 -31z" />
<glyph unicode="&#x2000;" horiz-adv-x="957" />
<glyph unicode="&#x2001;" horiz-adv-x="1915" />
<glyph unicode="&#x2002;" horiz-adv-x="957" />
<glyph unicode="&#x2003;" horiz-adv-x="1915" />
<glyph unicode="&#x2004;" horiz-adv-x="638" />
<glyph unicode="&#x2005;" horiz-adv-x="478" />
<glyph unicode="&#x2006;" horiz-adv-x="319" />
<glyph unicode="&#x2007;" horiz-adv-x="319" />
<glyph unicode="&#x2008;" horiz-adv-x="239" />
<glyph unicode="&#x2009;" horiz-adv-x="383" />
<glyph unicode="&#x200a;" horiz-adv-x="106" />
<glyph unicode="&#x2010;" horiz-adv-x="724" d="M41 506v176h643v-176h-643z" />
<glyph unicode="&#x2011;" horiz-adv-x="724" d="M41 506v176h643v-176h-643z" />
<glyph unicode="&#x2012;" horiz-adv-x="724" d="M41 506v176h643v-176h-643z" />
<glyph unicode="&#x2013;" horiz-adv-x="1050" d="M41 500v178h969v-178h-969z" />
<glyph unicode="&#x2014;" horiz-adv-x="1507" d="M41 504v178h1425v-178h-1425z" />
<glyph unicode="&#x2018;" horiz-adv-x="546" d="M153 1118v221q0 62 23.5 103t57.5 55.5t67.5 20t56.5 2.5l24 -4v-84q-24 1 -39 -5.5t-21 -19t-7.5 -21.5t-1.5 -22v-54h24q24 0 40.5 -13.5t16.5 -40.5v-138q0 -61 -57 -61h-131q-53 0 -53 61z" />
<glyph unicode="&#x2019;" horiz-adv-x="546" d="M153 1322v138q0 60 57 60h131q53 0 53 -60v-222q0 -45 -12.5 -79.5t-33 -53t-44.5 -30.5t-48.5 -15t-45 -3.5t-32.5 1.5l-13 2v84q24 -1 39 6t21 20t7.5 22t1.5 22v52h-24q-24 0 -40.5 14.5t-16.5 41.5z" />
<glyph unicode="&#x201a;" horiz-adv-x="546" d="M153 55v137q0 61 57 61h131q53 0 53 -61v-221q0 -46 -12.5 -80t-33 -53t-44.5 -30.5t-48.5 -14.5t-45 -3.5t-32.5 1.5l-13 2v83q24 -1 39 6t21 20.5t7.5 22.5t1.5 22v51h-24q-24 0 -40.5 15t-16.5 42z" />
<glyph unicode="&#x201c;" horiz-adv-x="860" d="M140 1117v222q0 62 23.5 103t57 55t67 19.5t56.5 1.5l24 -3v-83q-24 1 -39 -6t-20.5 -19.5t-7 -21.5t-1.5 -22v-51h24q24 0 40 -15t16 -42v-138q0 -60 -56 -60h-132q-52 0 -52 60zM480 1117v222q0 45 12.5 79.5t33 53t45 30t49.5 14t45.5 3t32.5 -1.5l13 -2v-83 q-71 2 -71 -69v-51h26q24 0 39.5 -15t15.5 -42v-138q0 -60 -55 -60h-131q-55 0 -55 60z" />
<glyph unicode="&#x201d;" horiz-adv-x="860" d="M140 1321v138q0 61 54 61h132q54 0 54 -61v-221q0 -45 -12.5 -79.5t-33 -53t-45 -30.5t-49 -15t-45 -3.5t-33.5 1.5l-12 2v83q24 -1 39 6t21 20t7.5 22t1.5 22v52h-25q-24 0 -39 14.5t-15 41.5zM480 1321v138q0 61 57 61h131q53 0 53 -61v-221q0 -45 -12.5 -79.5t-33 -53 t-45 -30.5t-48.5 -15t-44.5 -3.5t-33.5 1.5l-12 2v83q24 -1 39 6t21 20t7.5 22t1.5 22v52h-24q-24 0 -40.5 14.5t-16.5 41.5z" />
<glyph unicode="&#x201e;" horiz-adv-x="860" d="M140 55v137q0 61 54 61h132q54 0 54 -61v-221q0 -46 -12.5 -80t-33 -53t-45 -30.5t-49 -14.5t-45 -3.5t-33.5 1.5l-12 2v83q24 -1 39 6t21 20.5t7.5 22.5t1.5 22v51h-25q-24 0 -39 15t-15 42zM480 55v137q0 61 57 61h131q53 0 53 -61v-221q0 -62 -23.5 -103.5t-57.5 -56 t-67.5 -20t-56.5 -1.5l-24 3v83q24 -1 39 6t21 20.5t7.5 22.5t1.5 22v51h-24q-24 0 -40.5 15t-16.5 42z" />
<glyph unicode="&#x2022;" horiz-adv-x="636" d="M163 688v185q0 33 17 52.5t50 19.5h173q72 0 72 -72v-185q0 -66 -72 -66h-173q-31 0 -49 17.5t-18 48.5z" />
<glyph unicode="&#x2026;" horiz-adv-x="1665" d="M322 47v135q0 51 50 51h127q51 0 51 -51v-135q0 -47 -51 -47h-127q-22 0 -36 13t-14 34zM712 47v135q0 51 50 51h127q51 0 51 -51v-135q0 -47 -51 -47h-127q-22 0 -36 13t-14 34zM1102 47v135q0 51 49 51h127q52 0 52 -51v-135q0 -47 -52 -47h-127q-22 0 -35.5 12.5 t-13.5 34.5z" />
<glyph unicode="&#x202f;" horiz-adv-x="383" />
<glyph unicode="&#x2039;" horiz-adv-x="729" d="M96 725l422 416l120 -120l-304 -296l313 -305l-119 -121z" />
<glyph unicode="&#x203a;" horiz-adv-x="729" d="M96 420l312 305l-303 296l120 120l422 -416l-432 -426z" />
<glyph unicode="&#x205f;" horiz-adv-x="478" />
<glyph unicode="&#x20ac;" horiz-adv-x="1253" d="M38 519v109l174 14v188l-174 17v100l174 19q0 148 20 229q77 321 466 321q79 0 239 -20.5t272 -44.5v-145q-325 30 -493 30q-49 0 -89 -5.5t-70.5 -15t-54 -26t-40 -33.5t-28 -43.5t-18 -50.5t-10 -59t-4.5 -65t-1 -72l479 -15v-106l-479 -15v-188l479 -14v-109 q-31 -1 -81 -2t-155.5 -3.5t-175 -5t-67.5 -3.5q0 -184 83.5 -262.5t231.5 -78.5q87 0 212 9.5t207 18.5l82 10v-140q-231 -74 -519 -74q-39 0 -77 4t-88 17.5t-93 36t-86 62t-73.5 92t-49.5 131t-19 174.5z" />
<glyph unicode="&#x2122;" horiz-adv-x="1423" d="M38 1359v140h543v-140h-197v-575h-147v575h-199zM648 784l62 715h147l172 -467l146 467h151l70 -715h-146l-36 404l-121 -404h-124l-143 405l-31 -405h-147z" />
<glyph unicode="&#x25fc;" horiz-adv-x="1085" d="M0 0v1085h1085v-1085h-1085z" />
<glyph unicode="&#xfb03;" horiz-adv-x="2009" d="M38 918v135l203 34v183q0 43 3.5 78.5t19 83t42 79.5t78 55t121.5 23q138 0 287 -49v-120l-234 2q-36 1 -61 -8.5t-37.5 -21t-19.5 -38.5t-8.5 -44.5t-2.5 -56.5l-3 -166h553v102q0 185 113 302.5t301 118.5q75 0 205.5 -21.5t203.5 -45.5v-119l-357 19q-41 2 -78 -3 t-74 -22.5t-64 -45.5t-44 -76t-17 -110v-99l728 -20v-1067h-190v918h-542v-918h-188v918h-550v-918h-189v918h-199z" />
<glyph unicode="&#xfb04;" horiz-adv-x="2217" d="M38 918v135l203 34v183q0 43 3.5 78.5t19 83t42 79.5t78 55t121.5 23q138 0 287 -49v-120l-234 2q-26 0 -46 -4.5t-33.5 -10.5t-23 -20t-14.5 -25t-7.5 -32.5t-3 -35.5t-1.5 -41l-3 -166h555v105q0 192 87.5 303t265.5 111l567 -1v-1206q0 -86 11.5 -131.5t33 -64.5 t65.5 -33q156 -43 170 -43v-127h-195q-147 0 -210.5 86.5t-63.5 300.5v1056h-338q-51 0 -86 -10.5t-63.5 -37t-42 -77t-13.5 -126.5v-105h285v-169h-288v-918h-188v918h-552v-918h-189v918h-199z" />
</font>
</defs>
</svg>
